<?xml version="1.0" standalone="no"?>
<!DOCTYPE svg PUBLIC "-//W3C//DTD SVG 1.1//EN" "http://www.w3.org/Graphics/SVG/1.1/DTD/svg11.dtd" >
<svg>
<metadata>
Created by FontForge 20090914 at Thu Sep 14 20:27:20 2017
 By www-data
Copyright (c) 2012 by Jos Buivenga. All rights reserved.
</metadata>
<defs>
<font id="MuseoSansCyrl-100" horiz-adv-x="376" >
  <font-face 
    font-family="Museo Sans Cyrl 100"
    font-weight="250"
    font-stretch="normal"
    units-per-em="1000"
    panose-1="2 0 0 0 0 0 0 0 0 0"
    ascent="750"
    descent="-250"
    x-height="499.999"
    cap-height="700"
    bbox="-114 -212 1088 874"
    underline-thickness="50"
    underline-position="-50"
    unicode-range="U+0020-U+FB04"
  />
<missing-glyph horiz-adv-x="510" 
d="M5 0v700h500v-700h-500zM255 395l170 255h-340zM285 350l170 -255v510zM55 95l170 255l-170 255v-510zM85 50h340l-170 255z" />
    <glyph glyph-name="f_f" unicode="ff" horiz-adv-x="612" 
d="M102 0l0.00195312 462h-63v38h63v20c0 38.667 5.66699 71.334 17 98.001s26.166 45.667 44.499 57s35 19.166 50 23.499s30.5 6.5 46.5 6.5c11.333 0 20 -0.666992 26 -2v-39c-4 1.33301 -11.667 2 -23 2c-12.667 0 -24.667 -1.66699 -36 -5s-23.833 -9.5 -37.5 -18.5
s-24.667 -24 -33 -45s-12.5 -46.5 -12.5 -76.5v-21h263v20c0 38.667 5.66699 71.334 17 98.001s26.166 45.667 44.499 57s35 19.166 50 23.499s30.5 6.5 46.5 6.5c11.333 0 20 -0.666992 26 -2v-39c-4 1.33301 -11.667 2 -23 2c-12.667 0 -24.667 -1.66699 -36 -5
s-23.833 -9.5 -37.5 -18.5s-24.667 -24 -33 -45s-12.5 -46.5 -12.5 -76.5v-21h137v-38h-137v-462h-42v462h-263v-462h-42z" />
    <glyph glyph-name="fi" unicode="fi" horiz-adv-x="514" 
d="M102 0v462h-63v38h63v20c0 38.667 5.66699 71.334 17 98.001s26.166 45.667 44.499 57s35 19.166 50 23.499s30.5 6.5 46.5 6.5c6.66699 0 15.334 -0.666992 26.001 -2v-39c-5.33301 1.33301 -13 2 -23 2c-12.667 0 -24.667 -1.66699 -36 -5s-23.833 -9.5 -37.5 -18.5
s-24.667 -24 -33 -45s-12.5 -46.5 -12.5 -76.5v-21h284v-500h-42v462h-242v-462h-42zM382 627v73h50v-73h-50z" />
    <glyph glyph-name="fl" unicode="fl" horiz-adv-x="521" 
d="M102 0v459h-63v38h63v23c0 38.667 5.66699 71.334 17 98.001s26.166 45.667 44.499 57s35 19.166 50 23.499s30.5 6.5 46.5 6.5c6.66699 0 15.334 -0.666992 26.001 -2v-39c-5.33301 1.33301 -13 2 -23 2c-12.667 0 -24.667 -1.66699 -36 -5s-23.833 -9.5 -37.5 -18.5
s-24.667 -24 -33 -45s-12.5 -46.5 -12.5 -76.5v-24h137v-38h-137v-459h-42zM381 101l-0.000976562 599h42v-586c0 -52 19.667 -78 59 -78c6 0 11 0.333008 15 1v-39c-5.33301 -1.33301 -11.333 -2 -18 -2c-9.33301 0 -18.666 1.16699 -27.999 3.5
s-19.833 6.83301 -31.5 13.5s-21 17.5 -28 32.5s-10.5 33.5 -10.5 55.5z" />
    <glyph glyph-name="f_f_i" unicode="ffi" horiz-adv-x="819" 
d="M102 0v462h-63v38h63v20c0 38.667 5.66699 71.334 17 98.001s26.166 45.667 44.499 57s35 19.166 50 23.499s30.5 6.5 46.5 6.5c6.66699 0 15.334 -0.666992 26.001 -2v-39c-5.33301 1.33301 -13 2 -23 2c-12.667 0 -24.667 -1.66699 -36 -5s-23.833 -9.5 -37.5 -18.5
s-24.667 -24 -33 -45s-12.5 -46.5 -12.5 -76.5v-21h263v20c0 38.667 5.66699 71.334 17 98.001s26.166 45.667 44.499 57s35 19.166 50 23.499s30.5 6.5 46.5 6.5c6.66699 0 15.334 -0.666992 26.001 -2v-39c-5.33301 1.33301 -13 2 -23 2
c-12.667 0 -24.667 -1.66699 -36 -5s-23.833 -9.5 -37.5 -18.5s-24.667 -24 -33 -45s-12.5 -46.5 -12.5 -76.5v-21h284v-500h-42v462h-242v-462h-42v462h-263v-462h-42zM687 627v73h50v-73h-50z" />
    <glyph glyph-name="f_f_l" unicode="ffl" horiz-adv-x="826" 
d="M102 0v462h-63v38h63v20c0 38.667 5.66699 71.334 17 98.001s26.166 45.667 44.499 57s35 19.166 50 23.499s30.5 6.5 46.5 6.5c6.66699 0 15.334 -0.666992 26.001 -2v-39c-5.33301 1.33301 -13 2 -23 2c-12.667 0 -24.667 -1.66699 -36 -5s-23.833 -9.5 -37.5 -18.5
s-24.667 -24 -33 -45s-12.5 -46.5 -12.5 -76.5v-21h263v20c0 38.667 5.66699 71.334 17 98.001s26.166 45.667 44.499 57s35 19.166 50 23.499s30.5 6.5 46.5 6.5c6.66699 0 15.334 -0.666992 26.001 -2v-39c-5.33301 1.33301 -13 2 -23 2
c-12.667 0 -24.667 -1.66699 -36 -5s-23.833 -9.5 -37.5 -18.5s-24.667 -24 -33 -45s-12.5 -46.5 -12.5 -76.5v-21h137v-38h-137v-462h-42v462h-263v-462h-42zM686 101l-0.000976562 599h42v-586c0 -52 19.667 -78 59 -78c6 0 11 0.333008 15 1v-39
c-5.33301 -1.33301 -11.333 -2 -18 -2c-9.33301 0 -18.666 1.16699 -27.999 3.5s-19.833 6.83301 -31.5 13.5s-21 17.5 -28 32.5s-10.5 33.5 -10.5 55.5z" />
    <glyph glyph-name="f_j" unicode="fj" horiz-adv-x="514" 
d="M102 0l-0.00390625 462.002h-63v38h63v20c0 38.667 5.66699 71.334 17 98.001s26.166 45.667 44.499 57s35 19.166 50 23.499s30.5 6.5 46.5 6.5c6.66699 0 15.334 -0.666992 26.001 -2v-39c-5.33301 1.33301 -13 2 -23 2c-12.667 0 -24.667 -1.66699 -36 -5
s-23.833 -9.5 -37.5 -18.5s-24.667 -24 -33 -45s-12.5 -46.5 -12.5 -76.5v-21h284v-520c0 -38.667 -5.66699 -71.334 -17 -98.001s-26.166 -45.834 -44.499 -57.501s-35.166 -19.5 -50.499 -23.5s-31 -6 -47 -6c-4.66699 0 -13 0.666992 -25 2v39
c4 -1.33301 11.333 -2 22 -2c12.667 0 24.834 1.66699 36.501 5s24.334 9.5 38.001 18.5s24.667 24 33 45s12.5 46.5 12.5 76.5v483h-242v-462h-42zM381.996 627.002v73h50v-73h-50z" />
    <glyph glyph-name=".notdef" horiz-adv-x="510" 
d="M5 0v700h500v-700h-500zM255 395l170 255h-340zM285 350l170 -255v510zM55 95l170 255l-170 255v-510zM85 50h340l-170 255z" />
    <glyph glyph-name="space" unicode=" " horiz-adv-x="250" 
 />
    <glyph glyph-name="exclam" unicode="!" horiz-adv-x="250" 
d="M103 175v525h43v-525h-43zM96 0v61h59v-61h-59z" />
    <glyph glyph-name="quotedbl" unicode="&#x22;" horiz-adv-x="313" 
d="M187 558v151h43v-151h-43zM83 558v151h43v-151h-43z" />
    <glyph glyph-name="numbersign" unicode="#" horiz-adv-x="731" 
d="M168 0l35 199h-152l7 40h152l39 221h-152l7 40h152l35 200h43l-35 -200h189l35 200h43l-35 -200h149l-7 -40h-149l-39 -221h149l-7 -40h-149l-35 -199h-43l35 199h-189l-35 -199h-43zM253 239h189l39 221h-189z" />
    <glyph glyph-name="dollar" unicode="$" horiz-adv-x="560" 
d="M72 75l28.998 32.998c22 -23.333 50 -42.166 84 -56.499s68.333 -21.5 103 -21.5c44.667 0 81.834 12.667 111.501 38s44.5 58.666 44.5 99.999c0 26 -6.66699 49.167 -20 69.5s-30.5 37 -51.5 50s-44.333 25.333 -70 37l-77.5 35.5c-26 12 -49.5 25 -70.5 39
s-38.167 32.333 -51.5 55s-20 48.334 -20 77.001c0 44.667 16.833 84.167 50.5 118.5s77.5 54.5 131.5 60.5v95h43v-94c65.333 -3.33301 119.666 -24.666 162.999 -63.999l-24 -37c-19.333 18 -42.666 32.5 -69.999 43.5s-55 16.5 -83 16.5c-49.333 0 -89.333 -14 -120 -42
s-46 -60 -46 -96c0 -32.667 12.333 -60.5 37 -83.5s54.667 -41.833 90 -56.5l106.5 -46.5c35.667 -16.333 65.834 -39.166 90.501 -68.499s37 -65 37 -107c0 -48.667 -16.5 -89.834 -49.5 -123.501s-76.833 -52.834 -131.5 -57.501v-93h-43v93
c-78.667 4.66699 -143 33.334 -193 86.001z" />
    <glyph glyph-name="percent" unicode="%" horiz-adv-x="696" 
d="M190 451c-36 0 -66.667 12.667 -92 38s-38 56 -38 92s12.667 66.833 38 92.5s56 38.5 92 38.5s66.833 -12.833 92.5 -38.5s38.5 -56.5 38.5 -92.5s-12.833 -66.667 -38.5 -92s-56.5 -38 -92.5 -38zM58 0l531 700h52l-531 -700h-52zM190 491
c24.667 0 45.5 8.66699 62.5 26s25.5 38.666 25.5 63.999s-8.5 46.833 -25.5 64.5s-37.833 26.5 -62.5 26.5s-45.334 -8.83301 -62.001 -26.5s-25 -39.167 -25 -64.5s8.33301 -46.666 25 -63.999s37.334 -26 62.001 -26zM376 118c0 36 12.667 66.833 38 92.5
s56 38.5 92 38.5s66.833 -12.833 92.5 -38.5s38.5 -56.5 38.5 -92.5s-12.833 -66.667 -38.5 -92s-56.5 -38 -92.5 -38s-66.667 12.667 -92 38s-38 56 -38 92zM419 118c0 -25.333 8.33301 -46.666 25 -63.999s37.334 -26 62.001 -26s45.5 8.66699 62.5 26
s25.5 38.666 25.5 63.999s-8.5 46.833 -25.5 64.5s-37.833 26.5 -62.5 26.5s-45.334 -8.83301 -62.001 -26.5s-25 -39.167 -25 -64.5z" />
    <glyph glyph-name="ampersand" unicode="&#x26;" horiz-adv-x="656" 
d="M64 191c0 43.333 11.6689 82.6699 35.002 118.003s55.666 58.666 96.999 69.999v2c-67.333 26.667 -101 79 -101 157c0 51.333 18.167 93.166 54.5 125.499s86.166 48.5 149.499 48.5c22.667 0 47.334 -3.33301 74.001 -10l-14 -38c-22.667 5.33301 -43.667 8 -63 8
c-44.667 0 -81.834 -12.167 -111.501 -36.5s-44.5 -56.5 -44.5 -96.5c0 -15.333 2 -30 6 -44s11.333 -28.833 22 -44.5s28.167 -28.334 52.5 -38.001s54.5 -14.5 90.5 -14.5h163v102h43v-102h97v-40h-97v-112c0 -86 -19.833 -150.5 -59.5 -193.5s-94.167 -64.5 -163.5 -64.5
c-67.333 0 -122.5 19.167 -165.5 57.5s-64.5 86.833 -64.5 145.5zM109.002 193.004c0 -46.667 16.666 -85.499 49.999 -116.499s78.333 -46.5 135 -46.5c120 0 180 72 180 216v112h-161c-67.333 0 -118.166 -14.833 -152.499 -44.5s-51.5 -69.834 -51.5 -120.501z" />
    <glyph glyph-name="quotesingle" unicode="'" horiz-adv-x="209" 
d="M83 558v151h43v-151h-43z" />
    <glyph glyph-name="parenleft" unicode="(" horiz-adv-x="264" 
d="M172 -95c-73.333 128 -110 271.333 -110 430c0 138.667 36.667 268.667 110 390h44c-75.333 -126.667 -113 -257 -113 -391c0 -154 37.667 -297 113 -429h-44z" />
    <glyph glyph-name="parenright" unicode=")" horiz-adv-x="264" 
d="M48 -95c75.333 132 113 275 113 429c0 134 -37.667 264.333 -113 391h44c73.333 -121.333 110 -251.333 110 -390c0 -158.667 -36.667 -302 -110 -430h-44z" />
    <glyph glyph-name="asterisk" unicode="*" horiz-adv-x="496" 
d="M154 344l-36 25l99 130v2l-156 47l13 42l155 -54l-5 164h47l-5 -164l156 53l14 -41l-157 -47v-2l98 -130l-35 -26l-93 134h-2z" />
    <glyph glyph-name="plus" unicode="+" horiz-adv-x="560" 
d="M22 263v40h237v263h43v-263h236v-40h-236v-263h-43v263h-237z" />
    <glyph glyph-name="comma" unicode="," horiz-adv-x="253" 
d="M52 -94l53 155h56l-67 -155h-42z" />
    <glyph glyph-name="hyphen" unicode="-" horiz-adv-x="432" 
d="M78 263v40h276v-40h-276z" />
    <glyph glyph-name="period" unicode="." horiz-adv-x="217" 
d="M78 0v63h61v-63h-61z" />
    <glyph glyph-name="slash" unicode="/" horiz-adv-x="389" 
d="M46 -42l253 782h44l-253 -782h-44z" />
    <glyph glyph-name="zero" unicode="0" horiz-adv-x="612" 
d="M306 -12c-157.333 0 -236 120.667 -236 362s78.667 362 236 362s236 -120.667 236 -362s-78.667 -362 -236 -362zM306 30c36 0 66.833 8 92.5 24s45.5 39 59.5 69s24 63.333 30 100s9 79 9 127c0 213.333 -63.667 320 -191 320s-191 -106.667 -191 -320
c0 -48 3 -90.333 9 -127s16 -70 30 -100s33.833 -53 59.5 -69s56.5 -24 92.5 -24z" />
    <glyph glyph-name="one" unicode="1" horiz-adv-x="452" 
d="M58 0v40h159v570l1 35h-2c-4.66699 -8.66699 -17 -23 -37 -43l-83 -83l-30 29l151 152h43v-660h155v-40h-357z" />
    <glyph glyph-name="two" unicode="2" horiz-adv-x="555" 
d="M64 0c-2 13.333 -2.99902 25.6689 -2.99902 37.002c0 32.667 6.83301 63.167 20.5 91.5s31.5 52.833 53.5 73.5s46.333 40.5 73 59.5l79.5 56c26.333 18.333 50.5 37 72.5 56s39.833 41 53.5 66s20.5 51.833 20.5 80.5c0 43.333 -14.833 79.166 -44.5 107.499
s-69.167 42.5 -118.5 42.5c-34 0 -66.167 -9.16699 -96.5 -27.5s-54.833 -42.5 -73.5 -72.5l-32 22c20 35.333 48.333 64.166 85 86.499s76 33.5 118 33.5c65.333 0 116.166 -18.667 152.499 -56s54.5 -82.666 54.5 -135.999c0 -37.333 -9.16699 -72 -27.5 -104
s-41.333 -58.667 -69 -80l-89.5 -66.5l-89.5 -64.5c-27.667 -20 -50.667 -44.333 -69 -73s-27.5 -59.334 -27.5 -92.001h383v-40h-426z" />
    <glyph glyph-name="three" unicode="3" horiz-adv-x="557" 
d="M54 85l32.001 32.0029c22 -24.667 49.833 -45.334 83.5 -62.001s68.5 -25 104.5 -25c46.667 0 87.5 16.167 122.5 48.5s52.5 73.5 52.5 123.5c0 52 -18.5 92.833 -55.5 122.5s-80.833 44.5 -131.5 44.5h-48l-12 30l196 229l31 32v2c-12.667 -1.33301 -30.667 -2 -54 -2
h-287v40h401v-30l-226 -261c24 0 48.167 -3.16699 72.5 -9.5s49 -16.833 74 -31.5s45.333 -36.334 61 -65.001s23.5 -62.334 23.5 -101.001c0 -59.333 -21.833 -109.833 -65.5 -151.5s-95.834 -62.5 -156.501 -62.5c-40 0 -79.167 8.66699 -117.5 26s-71.833 41 -100.5 71z
" />
    <glyph glyph-name="four" unicode="4" horiz-adv-x="593" 
d="M41 200v30l363 470h40v-460h104v-40h-104v-200h-43v200h-360zM101 240h300v328l3 63h-2c-11.333 -16.667 -23 -32.667 -35 -48l-266 -341v-2z" />
    <glyph glyph-name="five" unicode="5" horiz-adv-x="549" 
d="M58 89l35 27.001c37.333 -57.333 91.333 -86 162 -86c54.667 0 100.667 17.5 138 52.5s56 78.5 56 130.5c0 52.667 -18.667 96.667 -56 132s-83.333 53 -138 53c-52 0 -97.333 -14 -136 -42l-32 11l40 333h325v-40h-287l-25 -209l-7 -43h2
c32.667 21.333 72.667 32 120 32c66.667 0 123.167 -22 169.5 -66s69.5 -97.667 69.5 -161c0 -62.667 -23.333 -115.834 -70 -159.501s-103 -65.5 -169 -65.5c-40 0 -77.5 8.83301 -112.5 26.5s-63.167 42.5 -84.5 74.5z" />
    <glyph glyph-name="six" unicode="6" horiz-adv-x="583" 
d="M66 314c0 45.333 5.83203 90.501 17.499 135.501s28.834 87.5 51.501 127.5s54 72.5 94 97.5s85.667 37.5 137 37.5c44 0 85 -9.33301 123 -28l-21 -39c-29.333 16.667 -64.333 25 -105 25c-50.667 0 -95.167 -16.5 -133.5 -49.5s-66.833 -73.167 -85.5 -120.5
s-29.667 -98 -33 -152h2c19.333 29.333 46.833 52.666 82.5 69.999s74.167 26 115.5 26c62.667 0 114.167 -20.333 154.5 -61s60.5 -95.667 60.5 -165c0 -70.667 -20.833 -126.667 -62.5 -168s-92.5 -62 -152.5 -62c-74.667 0 -134.167 31.333 -178.5 94
s-66.5 140 -66.5 232zM315.999 30.001c49.333 0 89.168 17.833 119.501 53.5s45.5 81.167 45.5 136.5c0 56 -15.833 100.333 -47.5 133s-73.167 49 -124.5 49c-50 0 -94.833 -14.333 -134.5 -43s-59.5 -64 -59.5 -106c0 -18.667 4.16699 -40.167 12.5 -64.5
s20.166 -48.5 35.499 -72.5s36.5 -44.333 63.5 -61s56.833 -25 89.5 -25z" />
    <glyph glyph-name="seven" unicode="7" horiz-adv-x="518" 
d="M113 0l291.999 595l37 65v2c-13.333 -1.33301 -31.666 -2 -54.999 -2h-340v40h443v-30l-332 -670h-45z" />
    <glyph glyph-name="eight" unicode="8" horiz-adv-x="589" 
d="M63 195c0 28 5.00098 54.498 15.001 79.498s22.667 45.833 38 62.5s28.5 29.334 39.5 38.001s21.5 16 31.5 22c-60 36.667 -90 84 -90 142c0 48.667 18.167 89.667 54.5 123s86.833 50 151.5 50c64 0 114.667 -16.333 152 -49s56 -75 56 -127c0 -30 -7 -60.5 -21 -91.5
s-27 -54 -39 -69s-23.667 -27.833 -35 -38.5c69.333 -38.667 104 -88.667 104 -150c0 -55.333 -21.833 -102.333 -65.5 -141s-96.834 -58 -159.501 -58c-61.333 0 -115.333 18.833 -162 56.5s-70 87.834 -70 150.501zM376.001 355.998
c60 56.667 89.998 115.668 89.998 177.001c0 42 -15 75.333 -45 100s-69.333 37 -118 37c-49.333 0 -88.5 -12.333 -117.5 -37s-43.5 -55.334 -43.5 -92.001c0 -20 4.16699 -37.833 12.5 -53.5s22 -30 41 -43s35.833 -23.333 50.5 -31s36.834 -17.667 66.501 -30
s50.834 -21.5 63.501 -27.5zM107.999 197.999c0 -49.333 18.666 -89.668 55.999 -121.001s80.333 -47 129 -47c47.333 0 89.5 14.833 126.5 44.5s55.5 66.167 55.5 109.5c0 20.667 -4.66699 39.334 -14 56.001s-23.666 31.334 -42.999 44.001s-37.5 23.167 -54.5 31.5
s-40 18.5 -69 30.5s-51.167 21.667 -66.5 29c-9.33301 -4.66699 -19.5 -11.167 -30.5 -19.5s-24 -19.833 -39 -34.5s-27.167 -32.834 -36.5 -54.501s-14 -44.5 -14 -68.5z" />
    <glyph glyph-name="nine" unicode="9" horiz-adv-x="583" 
d="M94 16l21 39c29.333 -16.667 63.666 -25 102.999 -25c51.333 0 96.333 16.5 135 49.5s67.334 73 86.001 120s29.667 97.833 33 152.5h-2c-19.333 -29.333 -46.833 -52.666 -82.5 -69.999s-74.167 -26 -115.5 -26c-62.667 0 -114.167 20.333 -154.5 61
s-60.5 94.667 -60.5 162c0 72.667 20.667 129.667 62 171s92.333 62 153 62c75.333 0 135 -31.333 179 -94s66 -140.334 66 -233.001c0 -45.333 -5.83301 -90.333 -17.5 -135s-28.834 -87 -51.501 -127s-54.167 -72.5 -94.5 -97.5s-86.166 -37.5 -137.499 -37.5
c-44 0 -84.667 9.33301 -122 28zM274 298c52 0 97.333 14.833 136 44.5s58 61.167 58 94.5c0 54 -18.667 106.333 -56 157s-83.666 76 -138.999 76c-52.667 0 -94.334 -17.667 -125.001 -53s-46 -81.333 -46 -138c0 -55.333 15.833 -99.333 47.5 -132s73.167 -49 124.5 -49z
" />
    <glyph glyph-name="colon" unicode=":" horiz-adv-x="213" 
d="M78 441v59h57v-59h-57zM78 0v59h57v-59h-57z" />
    <glyph glyph-name="semicolon" unicode=";" horiz-adv-x="275" 
d="M123 441v59h57v-59h-57zM78 -94l45 155h52l-56 -155h-41z" />
    <glyph glyph-name="less" unicode="&#x3c;" horiz-adv-x="560" 
d="M48 265v36l439 197v-48l-377 -166v-2l377 -166v-48z" />
    <glyph glyph-name="equal" unicode="=" horiz-adv-x="560" 
d="M52 343v40h456v-40h-456zM52 183v40h456v-40h-456z" />
    <glyph glyph-name="greater" unicode="&#x3e;" horiz-adv-x="560" 
d="M73 68v48l377 166v2l-377 166v48l439 -197v-36z" />
    <glyph glyph-name="question" unicode="?" horiz-adv-x="435" 
d="M162 175v43.998c0 30 6.16699 57.167 18.5 81.5s27.333 44.833 45 61.5l52.5 49.5c17.333 16.333 32.166 35.333 44.499 57s18.5 45.834 18.5 72.501c0 36.667 -13.667 67.334 -41 92.001s-62.333 37 -105 37c-46.667 0 -89 -14 -127 -42l-23 34
c18 14.667 40.667 26.667 68 36s54.333 14 81 14c56.667 0 102.834 -16.333 138.501 -49s53.5 -73.667 53.5 -123c0 -30.667 -6.16699 -58.167 -18.5 -82.5s-27.333 -44.833 -45 -61.5l-53.5 -49c-18 -16 -33.167 -34.833 -45.5 -56.5s-18.5 -45.5 -18.5 -71.5v-44h-43z
M154 -0.00195312v61h59v-61h-59z" />
    <glyph glyph-name="at" unicode="@" horiz-adv-x="761" 
d="M63 243c0 100.667 34 186.667 102 258s149.333 107 244 107c80 0 138.667 -17 176 -51s56 -76 56 -126v-344h70v-40h-265c-53.333 0 -98.833 19 -136.5 57s-56.5 83.667 -56.5 137c0 54 18.833 100.167 56.5 138.5s83.167 57.5 136.5 57.5h150
c-2 38 -17.333 69.333 -46 94s-73.667 37 -135 37c-86 0 -158.667 -31.5 -218 -94.5s-89 -139.833 -89 -230.5s29.5 -167.167 88.5 -229.5s131.833 -93.5 218.5 -93.5v-42c-97.333 0 -180.333 35.5 -249 106.5s-103 157.167 -103 258.5zM298 241
c0 -42.667 14.832 -78.999 44.499 -108.999s65.834 -45 108.501 -45h145v310h-143c-43.333 0 -80 -15.333 -110 -46s-45 -67.334 -45 -110.001z" />
    <glyph glyph-name="A" unicode="A" horiz-adv-x="624" 
d="M27 0l262 700h46l262 -700h-46l-91 242h-297l-90 -242h-46zM178 282h267l-106 284l-26 84h-2c-10 -36 -18.667 -64 -26 -84z" />
    <glyph glyph-name="B" unicode="B" horiz-adv-x="608" 
d="M107 0l0.000976562 700h235c52 0 94.5 -16 127.5 -48s49.5 -74.333 49.5 -127c0 -72.667 -30.333 -123.667 -91 -153v-2c35.333 -10 64 -31 86 -63s33 -70 33 -114c0 -58 -18.333 -104.667 -55 -140s-83.334 -53 -140.001 -53h-245zM150.001 388l191 0.000976562
c39.333 0 71.333 12.5 96 37.5s37 58.167 37 99.5s-12.167 74.166 -36.5 98.499s-56.833 36.5 -97.5 36.5h-190v-272zM150.001 40.001l198 0.000976562c47.333 0 84.833 13.667 112.5 41s41.5 64.666 41.5 111.999c0 46.667 -14.5 84.167 -43.5 112.5
s-66.167 42.5 -111.5 42.5h-197v-308z" />
    <glyph glyph-name="C" unicode="C" horiz-adv-x="719" 
d="M60 355c0 102 32.667 187 98 255s148.333 102 249 102c104 0 187.333 -29.333 250 -88l-26 -32c-28 24.667 -62 44 -102 58s-80.333 21 -121 21c-88.667 0 -161.334 -29.833 -218.001 -89.5s-85 -135.167 -85 -226.5c0 -92.667 28.5 -170.167 85.5 -232.5
s130.5 -93.5 220.5 -93.5c93.333 0 172.333 31.667 237 95l27 -30c-73.333 -70.667 -161.333 -106 -264 -106c-103.333 0 -187.666 35.333 -252.999 106s-98 157.667 -98 261z" />
    <glyph glyph-name="D" unicode="D" horiz-adv-x="738" 
d="M107 0v700h220c105.333 0 189.833 -31 253.5 -93s95.5 -147.667 95.5 -257c0 -110 -31.667 -195.833 -95 -257.5s-148 -92.5 -254 -92.5h-220zM150 40h170c94.667 0 170.167 27 226.5 81s84.5 130.333 84.5 229c0 98 -28.167 174.167 -84.5 228.5
s-131.833 81.5 -226.5 81.5h-170v-620z" />
    <glyph glyph-name="E" unicode="E" horiz-adv-x="556" 
d="M107 0v700h383v-40h-340v-287h279v-40h-279v-293h359v-40h-402z" />
    <glyph glyph-name="F" unicode="F" horiz-adv-x="498" 
d="M107 0v700h353v-40h-310v-292h268v-40h-268v-328h-43z" />
    <glyph glyph-name="G" unicode="G" horiz-adv-x="754" 
d="M60 350c0 101.333 33.502 186.998 100.502 256.998s149.833 105 248.5 105c97.333 0 178.666 -26.333 243.999 -79l-26 -33c-26 21.333 -59 38.5 -99 51.5s-79.667 19.5 -119 19.5c-87.333 0 -159.833 -30.667 -217.5 -92s-86.5 -137.666 -86.5 -228.999
s28.167 -167.666 84.5 -228.999s127.5 -92 213.5 -92c45.333 0 89.166 10.333 131.499 31s78.5 48.667 108.5 84v135h-125v40h168v-319h-43v61l1 30h-2c-27.333 -30.667 -62 -55.5 -104 -74.5s-87 -28.5 -135 -28.5c-97.333 0 -178.833 34.833 -244.5 104.5
s-98.5 155.5 -98.5 257.5z" />
    <glyph glyph-name="H" unicode="H" horiz-adv-x="744" 
d="M107 0v700h43v-329h444v329h43v-700h-43v331h-444v-331h-43z" />
    <glyph glyph-name="I" unicode="I" horiz-adv-x="257" 
d="M107 0v700h43v-700h-43z" />
    <glyph glyph-name="J" unicode="J" horiz-adv-x="509" 
d="M35 191v22h43v-23c0 -46 12.167 -84.333 36.5 -115s59.833 -46 106.5 -46c40.667 0 75 12.833 103 38.5s42 66.5 42 122.5v470h-167v40h210v-509c0 -69.333 -18.167 -120.5 -54.5 -153.5s-80.5 -49.5 -132.5 -49.5s-96.167 16.5 -132.5 49.5s-54.5 84.167 -54.5 153.5z
" />
    <glyph glyph-name="K" unicode="K" horiz-adv-x="570" 
d="M107 0v700h43v-312h130l200 312h52l-215 -330v-2l229 -368h-52l-214 348h-130v-348h-43z" />
    <glyph glyph-name="L" unicode="L" horiz-adv-x="508" 
d="M107 0v700h43v-660h334v-40h-377z" />
    <glyph glyph-name="M" unicode="M" horiz-adv-x="834" 
d="M80 0l56 700.001h42l204 -440l34 -79h2c12 30 23.333 56.333 34 79l204 440h42l56 -700h-43l-43 534l-3 93h-2c-13.333 -39.333 -25.333 -70.333 -36 -93l-188 -399h-44l-187 399l-37 95h-2c0 -40.667 -1 -72.334 -3 -95.001l-43 -534h-43z" />
    <glyph glyph-name="N" unicode="N" horiz-adv-x="750" 
d="M107 0v700h40l399 -549l57 -88h2c-3.33301 35.333 -5 64.666 -5 87.999v549h43v-700h-40l-399 549l-57 88h-2c3.33301 -35.333 5 -64.666 5 -87.999v-549h-43z" />
    <glyph glyph-name="O" unicode="O" horiz-adv-x="826" 
d="M59 355c0 100.667 34 185.334 102 254.001s152 103 252 103s184 -34.333 252 -103s102 -153.334 102 -254.001c0 -103.333 -34 -190.333 -102 -261s-152 -106 -252 -106s-184 35.333 -252 106s-102 157.667 -102 261zM104 355c0 -92 29.5 -169.333 88.5 -232
s132.5 -94 220.5 -94s161.5 31.333 220.5 94s88.5 140 88.5 232c0 90 -29.5 165.167 -88.5 225.5s-132.5 90.5 -220.5 90.5s-161.5 -30.167 -220.5 -90.5s-88.5 -135.5 -88.5 -225.5z" />
    <glyph glyph-name="P" unicode="P" horiz-adv-x="589" 
d="M107 0v700h230c62 0 113 -18.5 153 -55.5s60 -86.5 60 -148.5c0 -62.667 -20 -112.667 -60 -150s-91 -56 -153 -56h-187v-290h-43zM150 330h185c52 0 93.333 14.667 124 44s46 70 46 122s-15.333 92.333 -46 121s-72 43 -124 43h-185v-330z" />
    <glyph glyph-name="Q" unicode="Q" horiz-adv-x="827" 
d="M60 354c0 101.333 33.833 186.333 101.5 255s151.167 103 250.5 103c102 0 186.833 -34.333 254.5 -103s101.5 -153.667 101.5 -255c0 -99.333 -30.667 -182.333 -92 -249l90 -93l-28 -27l-89 92c-65.333 -59.333 -144.333 -89 -237 -89c-100 0 -183.667 35.5 -251 106.5
s-101 157.5 -101 259.5zM105 354c0 -91.333 29.501 -168.333 88.501 -231s131.833 -94 218.5 -94c81.333 0 150.666 26 207.999 78l-90 93l28 27l89 -92c50.667 61.333 76 134.333 76 219c0 90.667 -29.667 166.167 -89 226.5s-133.333 90.5 -222 90.5
c-86.667 0 -159.5 -30.333 -218.5 -91s-88.5 -136 -88.5 -226z" />
    <glyph glyph-name="R" unicode="R" horiz-adv-x="607" 
d="M107 0v699.999h205c56 0 98 -7 126 -21c30 -14.667 53.667 -36.667 71 -66s26 -63.333 26 -102c0 -49.333 -13 -91.5 -39 -126.5s-59.667 -57.167 -101 -66.5v-2c4.66699 -5.33301 10 -13.666 16 -24.999l157 -291h-51l-166 310h-201v-310h-43zM150 349.999h190.002
c45.333 0 81.666 14.833 108.999 44.5s41 68.5 41 116.5c0 30.667 -7.33301 58 -22 82s-34.667 41.667 -60 53c-20.667 9.33301 -53.334 14 -98.001 14h-160v-310z" />
    <glyph glyph-name="S" unicode="S" horiz-adv-x="524" 
d="M52 75l28.999 33c52 -52 113.333 -78 184 -78c46.667 0 84.834 12.667 114.501 38s44.5 58.666 44.5 99.999c0 36 -12.333 66.5 -37 91.5s-54.5 45 -89.5 60l-105 46c-35 15.667 -64.833 37.334 -89.5 65.001s-37 61.5 -37 101.5c0 54 20.167 97.5 60.5 130.5
s90.5 49.5 150.5 49.5c72.667 0 131.667 -21.667 177 -65l-24 -37c-18.667 18.667 -42.167 33.334 -70.5 44.001s-56.5 16 -84.5 16c-45.333 0 -84 -12.333 -116 -37s-48 -57.334 -48 -98.001c0 -34 12.333 -62.833 37 -86.5s54.5 -42.667 89.5 -57s70 -29.5 105 -45.5
s64.833 -38.333 89.5 -67s37 -64 37 -106c0 -54 -18.5 -98.333 -55.5 -133s-86.833 -52 -149.5 -52c-83.333 0 -154 29 -212 87z" />
    <glyph glyph-name="T" unicode="T" horiz-adv-x="601" 
d="M279 0v660h-261v40h565v-40h-261v-660h-43z" />
    <glyph glyph-name="U" unicode="U" horiz-adv-x="721" 
d="M99 240l-0.00195312 460h43v-458c0 -65.333 19.667 -117.166 59 -155.499s92.333 -57.5 159 -57.5s119.834 19.167 159.501 57.5s59.5 90.833 59.5 157.5v456h43v-460c0 -76.667 -24.167 -137.834 -72.5 -183.501s-111.166 -68.5 -188.499 -68.5
c-78 0 -141.167 23 -189.5 69s-72.5 107 -72.5 183z" />
    <glyph glyph-name="V" unicode="V" horiz-adv-x="621" 
d="M287 0l-262 700h46l211 -566l27 -84h2c10 34 19 62 27 84l212 566h46l-262 -700h-47z" />
    <glyph glyph-name="W" unicode="W" horiz-adv-x="914" 
d="M225 0l-184 700h45l148 -570l17 -75h2c6 26.667 12.333 51.667 19 75l160 570h48l160 -570l19 -75h2c5.33301 27.333 11 52.333 17 75l153 570h45l-189 -700h-54l-148 528l-27 111h-4c-9.33301 -44 -18.333 -81 -27 -111l-148 -528h-54z" />
    <glyph glyph-name="X" unicode="X" horiz-adv-x="555" 
d="M21 0l226 369.999l-201 330h52l134 -223l46 -78h2c14.667 29.333 29 55.333 43 78l135 223h52l-203 -330l227 -370h-51l-162 266l-45 75h-2c-14 -27.333 -28 -52.666 -42 -75.999l-160 -265h-51z" />
    <glyph glyph-name="Y" unicode="Y" horiz-adv-x="567" 
d="M262 0v304l-238 396h49l166 -276l43 -79h2c14.667 30 29 56.333 43 79l166 276h49l-237 -396v-304h-43z" />
    <glyph glyph-name="Z" unicode="Z" horiz-adv-x="565" 
d="M35 0v34l385 562l48 64v2c-10.667 -1.33301 -27.667 -2 -51 -2h-361v40h464v-34l-385 -562l-48 -64v-2c10.667 1.33301 27.667 2 51 2h385v-40h-488z" />
    <glyph glyph-name="bracketleft" unicode="[" horiz-adv-x="265" 
d="M98 -95v820h108v-40h-65v-740h65v-40h-108z" />
    <glyph glyph-name="backslash" unicode="\" horiz-adv-x="389" 
d="M299 -42l-253 782h44l253 -782h-44z" />
    <glyph glyph-name="bracketright" unicode="]" horiz-adv-x="265" 
d="M59 -55h65v740h-65v40h108v-820h-108v40z" />
    <glyph glyph-name="asciicircum" unicode="^" horiz-adv-x="600" 
d="M77 252l197 448h32l197 -448h-46l-167 388l-167 -388h-46z" />
    <glyph glyph-name="underscore" unicode="_" horiz-adv-x="582" 
d="M43 0h496v-40h-496v40z" />
    <glyph glyph-name="grave" unicode="`" horiz-adv-x="509" 
d="M272 750l-79 111h56l67 -111h-44z" />
    <glyph glyph-name="a" unicode="a" horiz-adv-x="508" 
d="M41 133c0 23.333 4.33203 44.333 12.999 63s19.334 33.834 32.001 45.501s29.167 21.834 49.5 30.501s38.833 15 55.5 19s36.667 7.16699 60 9.5s41.333 3.66602 54 3.99902s28 0.5 46 0.5h33v17c0 99.333 -45.667 149 -137 149c-53.333 0 -101 -16 -143 -48l-24 34
c19.333 16.667 44.333 30 75 40s62 15 94 15c58 0 102 -16 132 -48s45 -79 45 -141v-323h-42v66l4 45h-2c-13.333 -34.667 -35.5 -63.834 -66.5 -87.501s-67.167 -35.5 -108.5 -35.5c-45.333 0 -85 12.5 -119 37.5s-51 60.833 -51 107.5zM84.999 136
c0 -28.667 11.334 -54 34.001 -76s54 -33 94 -33c51.333 0 92.666 21.833 123.999 65.5s47 92.5 47 146.5v27h-32c-20.667 0 -37.5 -0.166992 -50.5 -0.5s-31.667 -1.66602 -56 -3.99902s-44.333 -6.33301 -60 -12s-32 -13 -49 -22s-29.833 -21.333 -38.5 -37
s-13 -33.834 -13 -54.501z" />
    <glyph glyph-name="b" unicode="b" horiz-adv-x="578" 
d="M87 0l-0.00195312 700h42v-260l-4 -41h2c15.333 34.667 39 62.167 71 82.5s68.667 30.5 110 30.5c66 0 118.5 -24 157.5 -72s58.5 -111.333 58.5 -190s-20.833 -142 -62.5 -190s-95.5 -72 -161.5 -72c-37.333 0 -71.666 10.333 -102.999 31s-54.666 48 -69.999 82h-2
c2.66699 -12 4 -26.667 4 -44v-57h-42zM127.998 249c0 -60 15.167 -111.667 45.5 -155s73.166 -65 128.499 -65c50.667 0 93 19.833 127 59.5s51 93.5 51 161.5c0 66.667 -16.167 120.167 -48.5 160.5s-74.166 60.5 -125.499 60.5c-50.667 0 -93 -18.5 -127 -55.5
s-51 -92.5 -51 -166.5z" />
    <glyph glyph-name="c" unicode="c" horiz-adv-x="540" 
d="M52 249c0 77.333 25.1719 140.5 75.5049 189.5s111.166 73.5 182.499 73.5c33.333 0 66.166 -6 98.499 -18s59.166 -29.667 80.499 -53l-26 -34c-18 19.333 -40.833 34.833 -68.5 46.5s-55.834 17.5 -84.501 17.5c-60 0 -110.667 -20.5 -152 -61.5s-62 -94.5 -62 -160.5
c0 -65.333 20.667 -118.333 62 -159s92 -61 152 -61c31.333 0 62 6.33301 92 19s55 30.334 75 53.001l22 -35c-21.333 -24 -48.833 -43 -82.5 -57s-69.167 -21 -106.5 -21c-72.667 0 -133.834 24.167 -183.501 72.5s-74.5 111.166 -74.5 188.499z" />
    <glyph glyph-name="d" unicode="d" horiz-adv-x="578" 
d="M54 250c0 78.667 20.833 142 62.5 190s95.5 72 161.5 72c38 0 72.333 -10.333 103 -31s54 -48 70 -82h2c-2.66699 12 -4 25.667 -4 41v260h42v-700h-42v63l4 38h-2c-14.667 -32.667 -37.5 -59.667 -68.5 -81s-68.5 -32 -112.5 -32c-66 0 -118.5 24 -157.5 72
s-58.5 111.333 -58.5 190zM98 250c0 -66.667 16.167 -120.167 48.5 -160.5s74.166 -60.5 125.499 -60.5c50.667 0 93 18.5 127 55.5s51 92.5 51 166.5c0 60 -15.167 111.667 -45.5 155s-73.166 65 -128.499 65c-50.667 0 -93 -19.833 -127 -59.5s-51 -93.5 -51 -161.5z" />
    <glyph glyph-name="e" unicode="e" horiz-adv-x="549" 
d="M52 249c0 81.333 23.668 145.503 71.001 192.503s104.666 70.5 171.999 70.5c64.667 0 114.834 -21.833 150.501 -65.5s53.5 -97.834 53.5 -162.501c0 -6 -0.666992 -15 -2 -27h-401c0 -70 20.5 -125.5 61.5 -166.5s91.833 -61.5 152.5 -61.5c61.333 0 113 21 155 63
l23 -35c-22 -20.667 -49.167 -37.334 -81.5 -50.001s-64.5 -19 -96.5 -19c-72.667 0 -133.834 24.167 -183.501 72.5s-74.5 111.166 -74.5 188.499zM99.001 296.003h356c-2.66699 58 -19 102 -49 132s-67.333 45 -112 45c-48.667 0 -91.167 -15.5 -127.5 -46.5
s-58.833 -74.5 -67.5 -130.5z" />
    <glyph glyph-name="f" unicode="f" horiz-adv-x="307" 
d="M102 0v459h-63v38h63v23c0 38.667 5.66699 71.334 17 98.001s26.166 45.667 44.499 57s35 19.166 50 23.499s30.5 6.5 46.5 6.5c6.66699 0 15.334 -0.666992 26.001 -2v-39c-5.33301 1.33301 -13 2 -23 2c-12.667 0 -24.667 -1.66699 -36 -5s-23.833 -9.5 -37.5 -18.5
s-24.667 -24 -33 -45s-12.5 -46.5 -12.5 -76.5v-24h137v-38h-137v-459h-42z" />
    <glyph glyph-name="g" unicode="g" horiz-adv-x="571" 
d="M118 -134c43.333 -23.333 87.998 -34.999 133.998 -34.999c56.667 0 102.5 14.167 137.5 42.5s52.5 71.5 52.5 129.5v58l4 41h-2c-33.333 -68 -89.333 -102 -168 -102c-65.333 0 -118.666 23.667 -159.999 71s-62 109.666 -62 186.999c0 78 19.5 139.833 58.5 185.5
s91.167 68.5 156.5 68.5c38.667 0 73.834 -8.16699 105.501 -24.5s54.5 -40.833 68.5 -73.5h2c-2 4.66699 -3 11 -3 19v67h42v-497c0 -72 -21.833 -125.5 -65.5 -160.5s-98.167 -52.5 -163.5 -52.5c-54 0 -106.333 13 -157 39zM97.998 258.001
c0 -66.667 16.667 -119.501 50 -158.501s77 -58.5 131 -58.5c48.667 0 88.167 17.167 118.5 51.5s45.5 89.5 45.5 165.5c0 142 -58 213 -174 213c-54 0 -96 -18.667 -126 -56s-45 -89.666 -45 -156.999z" />
    <glyph glyph-name="h" unicode="h" horiz-adv-x="586" 
d="M87 0l0.00488281 700.001h42v-288l-4 -41h2c11.333 32 35.666 63.5 72.999 94.5s83.666 46.5 138.999 46.5c61.333 0 104.166 -16.5 128.499 -49.5s36.5 -81.5 36.5 -145.5v-317h-42v302c0 20 -0.666992 37.167 -2 51.5s-4.33301 29.333 -9 45s-11.334 28.5 -20.001 38.5
s-20.834 18.167 -36.501 24.5s-34.167 9.5 -55.5 9.5c-58 0 -107.5 -21.333 -148.5 -64s-61.5 -96.334 -61.5 -161.001v-246h-42z" />
    <glyph glyph-name="i" unicode="i" horiz-adv-x="216" 
d="M83 627v73h50v-73h-50zM87 0v500h42v-500h-42z" />
    <glyph glyph-name="j" unicode="j" horiz-adv-x="216" 
d="M83 627v73h50v-73h-50zM87 -21l-0.00390625 521.002h42v-520c0 -38.667 -5.66699 -71.334 -17 -98.001s-26.166 -45.834 -44.499 -57.501s-35.166 -19.5 -50.499 -23.5s-31 -6 -47 -6c-4.66699 0 -13 0.666992 -25 2v39c4 -1.33301 11.333 -2 22 -2
c12.667 0 24.834 1.66699 36.501 5s24.334 9.5 38.001 18.5s24.667 24 33 45s12.5 46.5 12.5 76.5z" />
    <glyph glyph-name="k" unicode="k" horiz-adv-x="473" 
d="M87 0v700h42v-397h89l162 197h55l-181 -215v-2l198 -283h-53l-181 264h-89v-264h-42z" />
    <glyph glyph-name="l" unicode="l" horiz-adv-x="227" 
d="M87 101l-0.000976562 599h42v-586c0 -52 19.667 -78 59 -78c6 0 11 0.333008 15 1v-39c-5.33301 -1.33301 -11.333 -2 -18 -2c-9.33301 0 -18.666 1.16699 -27.999 3.5s-19.833 6.83301 -31.5 13.5s-21 17.5 -28 32.5s-10.5 33.5 -10.5 55.5z" />
    <glyph glyph-name="m" unicode="m" horiz-adv-x="918" 
d="M87 0l0.000976562 500h42v-88l-4 -41h2c12.667 37.333 38.167 70.166 76.5 98.499s76.833 42.5 115.5 42.5c49.333 0 86.666 -11.333 111.999 -34s40.666 -56.667 45.999 -102h2c14.667 36.667 39.667 68.5 75 95.5s73.666 40.5 114.999 40.5
c61.333 0 104.5 -16.5 129.5 -49.5s37.5 -81.5 37.5 -145.5v-317h-42v302c0 54.667 -8.66699 96.834 -26 126.501s-50.333 44.5 -99 44.5c-52 0 -96 -23 -132 -69s-54 -97.667 -54 -155v-249h-42v302c0 20 -0.666992 37.167 -2 51.5s-4.5 29.5 -9.5 45.5s-11.667 29 -20 39
s-20.166 18.333 -35.499 25s-33.666 10 -54.999 10c-52.667 0 -97.5 -23 -134.5 -69s-55.5 -97.667 -55.5 -155v-249h-42z" />
    <glyph glyph-name="n" unicode="n" horiz-adv-x="586" 
d="M87 0l0.00488281 499.999h42v-88l-4 -41h2c11.333 32 35.666 63.5 72.999 94.5s83.666 46.5 138.999 46.5c61.333 0 104.166 -16.5 128.499 -49.5s36.5 -81.5 36.5 -145.5v-317h-42v302c0 20 -0.666992 37.167 -2 51.5s-4.33301 29.333 -9 45s-11.334 28.5 -20.001 38.5
s-20.834 18.167 -36.501 24.5s-34.167 9.5 -55.5 9.5c-58 0 -107.5 -21.167 -148.5 -63.5s-61.5 -95.166 -61.5 -158.499v-249h-42z" />
    <glyph glyph-name="o" unicode="o" horiz-adv-x="620" 
d="M51 253c0 72.667 25.167 134 75.5 184s111.5 75 183.5 75s133.167 -25 183.5 -75s75.5 -111.333 75.5 -184c0 -74 -25.167 -136.667 -75.5 -188s-111.5 -77 -183.5 -77s-133.167 25.667 -183.5 77s-75.5 114 -75.5 188zM95 253c0 -63.333 20.833 -116.5 62.5 -159.5
s92.5 -64.5 152.5 -64.5s110.833 21.5 152.5 64.5s62.5 96.167 62.5 159.5c0 61.333 -20.833 113 -62.5 155s-92.5 63 -152.5 63s-110.833 -21 -152.5 -63s-62.5 -93.667 -62.5 -155z" />
    <glyph glyph-name="p" unicode="p" horiz-adv-x="578" 
d="M87 -200l-0.000976562 700h42v-60l-3 -40h2c14.667 34.667 38 62 70 82s68.667 30 110 30c66 0 118.5 -24 157.5 -72s58.5 -111.333 58.5 -190s-20.667 -142 -62 -190s-94.666 -72 -159.999 -72c-38 0 -72.667 10 -104 30s-55 47.667 -71 83h-2
c2.66699 -12 4 -26.667 4 -44v-257h-42zM127.999 249c0 -59.333 15.667 -110.833 47 -154.5s73.666 -65.5 126.999 -65.5c50.667 0 93 19.833 127 59.5s51 93.5 51 161.5c0 66.667 -16.167 120.167 -48.5 160.5s-74.166 60.5 -125.499 60.5c-50.667 0 -93 -18.5 -127 -55.5
s-51 -92.5 -51 -166.5z" />
    <glyph glyph-name="q" unicode="q" horiz-adv-x="578" 
d="M54 250c0 78.667 20.833 142.001 62.5 190.001s95.5 72 161.5 72c38 0 72.333 -10.167 103 -30.5s53.667 -47.5 69 -81.5h2c-2 11.333 -3 24.666 -3 39.999v60h42v-700h-42v257l4 44h-2c-14 -30.667 -36 -57.167 -66 -79.5s-68.333 -33.5 -115 -33.5
c-66 0 -118.5 24 -157.5 72s-58.5 111.333 -58.5 190zM98 250.001c0 -66.667 16.167 -120.167 48.5 -160.5s74.166 -60.5 125.499 -60.5c50.667 0 93 18.5 127 55.5s51 92.5 51 166.5c0 60 -15.167 111.667 -45.5 155s-73.166 65 -128.499 65
c-50.667 0 -93 -19.833 -127 -59.5s-51 -93.5 -51 -161.5z" />
    <glyph glyph-name="r" unicode="r" horiz-adv-x="340" 
d="M87 0v500h42v-95l-4 -41h2c13.333 40.667 34 74.167 62 100.5s60.667 39.5 98 39.5c10 0 19.667 -1 29 -3v-42c-4 1.33301 -11.667 2 -23 2c-36.667 0 -68 -13.667 -94 -41s-44.167 -58.833 -54.5 -94.5s-15.5 -72.167 -15.5 -109.5v-216h-42z" />
    <glyph glyph-name="s" unicode="s" horiz-adv-x="430" 
d="M41 60l27.001 31.999c40 -42 91.667 -63 155 -63c32.667 0 60 8.33301 82 25s33 39.667 33 69c0 23.333 -9.5 43 -28.5 59s-42 29 -69 39s-53.833 20.667 -80.5 32s-49.5 27.333 -68.5 48s-28.5 46 -28.5 76c0 42.667 15.333 75.834 46 99.501s68.667 35.5 114 35.5
c63.333 0 112.666 -18 147.999 -54l-25 -34c-29.333 31.333 -71.333 47 -126 47c-31.333 0 -58 -7.5 -80 -22.5s-33 -37.833 -33 -68.5c0 -24 9.5 -44 28.5 -60s42 -29.167 69 -39.5l80.5 -32c26.667 -11 49.5 -27 68.5 -48s28.5 -46.833 28.5 -77.5
c0 -40 -15 -72.5 -45 -97.5s-68.333 -37.5 -115 -37.5c-76.667 0 -137 24 -181 72z" />
    <glyph glyph-name="t" unicode="t" horiz-adv-x="304" 
d="M102 181l-0.00195312 277.998h-66v38h66v142h42v-142h131v-38h-131v-275c0 -30.667 4.16699 -56.667 12.5 -78s19.166 -36.833 32.499 -46.5s25.833 -16.167 37.5 -19.5s23.834 -5 36.501 -5c10 0 17.667 0.666992 23 2v-39c-5.33301 -1.33301 -13.666 -2 -24.999 -2
c-12.667 0 -25 1 -37 3s-25.667 6.83301 -41 14.5s-28.666 17.834 -39.999 30.501s-21 30.834 -29 54.501s-12 51.167 -12 82.5z" />
    <glyph glyph-name="u" unicode="u" horiz-adv-x="580" 
d="M81 183l-0.00292969 317h42v-302c0 -20 0.666992 -37.167 2 -51.5s4.33301 -29.333 9 -45s11.334 -28.5 20.001 -38.5s20.834 -18.167 36.501 -24.5s34.167 -9.5 55.5 -9.5c60 0 109.167 22.5 147.5 67.5s57.5 98.167 57.5 159.5v244h42v-500h-42v88l4 41h-2
c-11.333 -32 -35.333 -63.5 -72 -94.5s-81.667 -46.5 -135 -46.5c-59.333 0 -101.666 16 -126.999 48s-38 81 -38 147z" />
    <glyph glyph-name="v" unicode="v" horiz-adv-x="496" 
d="M228 0l-197 500h45l154 -392l17 -54h2c5.33301 20 11 38 17 54l154 392h44l-196 -500h-40z" />
    <glyph glyph-name="w" unicode="w" horiz-adv-x="823" 
d="M210 0l-176 500h45l136 -392l17 -54h2c6 20 11.667 38 17 54l137 390h47l137 -390l17 -54h2c5.33301 19.333 11 37.333 17 54l136 392h45l-176 -500h-45l-139 388l-17 54h-2c-5.33301 -20 -11 -38 -17 -54l-138 -388h-45z" />
    <glyph glyph-name="x" unicode="x" horiz-adv-x="462" 
d="M22 0l180 264l-161 236h51l121 -182l17 -28h2l17 28l121 182h51l-161 -236l180 -264h-52l-138 207l-18 29h-2c-5.33301 -9.33301 -11.333 -19 -18 -29l-138 -207h-52z" />
    <glyph glyph-name="y" unicode="y" horiz-adv-x="517" 
d="M41 -146c18.667 -16 39.332 -24.001 61.999 -24.001c40 0 72.667 30 98 90l36 83l-207 497h45l165 -399l18 -47h2c4.66699 15.333 10.334 31 17.001 47l165 399h45l-257 -617c-26 -62 -68.333 -93 -127 -93c-14 0 -27.833 2.33301 -41.5 7s-23.5 9.33398 -29.5 14.001
l-10 7z" />
    <glyph glyph-name="z" unicode="z" horiz-adv-x="487" 
d="M38 0v34l303 381l39 46v2c-12 -1.33301 -29 -2 -51 -2h-278v39h386v-34l-304 -381l-40 -46v-2c12.667 1.33301 30 2 52 2h303v-39h-410z" />
    <glyph glyph-name="braceleft" unicode="{" horiz-adv-x="326" 
d="M132 88l-0.000976562 94c0 30.667 -7.16699 56.667 -21.5 78s-35.5 35 -63.5 41v40c27.333 6 48.333 19.5 63 40.5s22 47.167 22 78.5v81c0 39.333 5.33301 72.5 16 99.5s24.334 45.833 41.001 56.5s31 17.834 43 21.501s24 5.5 36 5.5h9v-39h-6
c-8.66699 0 -17.167 -1.33301 -25.5 -4s-18.5 -8.33398 -30.5 -17.001s-21.667 -23.5 -29 -44.5s-11 -46.833 -11 -77.5v-93c0 -28 -6.83301 -53.333 -20.5 -76s-33.167 -39.667 -58.5 -51v-2c52.667 -21.333 79 -63.666 79 -126.999v-106c0 -30.667 3.66699 -56.5 11 -77.5
s17 -35.833 29 -44.5s22.167 -14.334 30.5 -17.001s16.833 -4 25.5 -4h6v-39c-2 -0.666992 -5 -1 -9 -1c-8.66699 0 -17.5 0.833008 -26.5 2.5s-20.5 6.16699 -34.5 13.5s-26.167 17 -36.5 29s-19.333 30.167 -27 54.5s-11.5 52.5 -11.5 84.5z" />
    <glyph glyph-name="bar" unicode="|" horiz-adv-x="235" 
d="M96 -155v940h43v-940h-43z" />
    <glyph glyph-name="braceright" unicode="}" horiz-adv-x="326" 
d="M49 -56l5.99902 0.000976562c8.66699 0 17.167 1.33301 25.5 4s18.5 8.33398 30.5 17.001s21.667 23.5 29 44.5s11 46.833 11 77.5v106c0 63.333 26.333 105.666 79 126.999v2c-22.667 9.33301 -41.5 25.333 -56.5 48s-22.5 49 -22.5 79v93
c0 30.667 -3.66699 56.5 -11 77.5s-17 35.833 -29 44.5s-22.167 14.334 -30.5 17.001s-16.833 4 -25.5 4h-6v39h9c12 0 24 -1.83301 36 -5.5s26.333 -10.834 43 -21.501s30.334 -29.5 41.001 -56.5s16 -60.167 16 -99.5v-81c0 -30.667 7.33301 -56.667 22 -78
s35.667 -35 63 -41v-40c-27.333 -5.33301 -48.333 -18.833 -63 -40.5s-22 -47.834 -22 -78.501v-94c0 -32 -3.83301 -60.167 -11.5 -84.5s-16.667 -42.5 -27 -54.5s-22.5 -21.667 -36.5 -29s-25.5 -11.833 -34.5 -13.5s-17.833 -2.5 -26.5 -2.5l-9 1v39z" />
    <glyph glyph-name="asciitilde" unicode="~" horiz-adv-x="593" 
d="M79 213c0 49.333 10.5 85.666 31.5 108.999s48.833 35 83.5 35c20.667 0 39.167 -3.83301 55.5 -11.5s29.666 -16.834 39.999 -27.501l30 -32c9.66699 -10.667 21.334 -19.834 35.001 -27.501s28.834 -11.5 45.501 -11.5c20.667 0 37 7 49 21s19.333 27.833 22 41.5
s4 28.167 4 43.5h40c0 -49.333 -10.5 -85.666 -31.5 -108.999s-48.833 -35 -83.5 -35c-20.667 0 -39.167 3.83301 -55.5 11.5s-29.666 16.834 -39.999 27.501l-30 32c-9.66699 10.667 -21.334 19.834 -35.001 27.501s-28.834 11.5 -45.501 11.5c-20.667 0 -37 -7 -49 -21
s-19.333 -27.833 -22 -41.5s-4 -28.167 -4 -43.5h-40z" />
    <glyph glyph-name="uni00A0" unicode="&#xa0;" horiz-adv-x="250" 
 />
    <glyph glyph-name="exclamdown" unicode="&#xa1;" horiz-adv-x="227" 
d="M135 325v-525h-43v525h43zM142 500v-61h-59v61h59z" />
    <glyph glyph-name="cent" unicode="&#xa2;" horiz-adv-x="560" 
d="M269 -13l0.000976562 83.9971c-68 6 -119.833 34.833 -155.5 86.5s-53.5 115.834 -53.5 192.501s17.833 140.834 53.5 192.501s87.5 80.5 155.5 86.5v83h43v-83c81.333 -7.33301 143 -54.666 185 -141.999l-41 -16c-36.667 77.333 -91 116 -163 116
c-63.333 0 -110.5 -22 -141.5 -66s-46.5 -101 -46.5 -171s15.5 -127 46.5 -171s78.167 -66 141.5 -66c72 0 126.333 38.667 163 116l41 -16c-42.667 -88 -104.334 -135.333 -185.001 -142v-84h-43z" />
    <glyph glyph-name="sterling" unicode="&#xa3;" horiz-adv-x="560" 
d="M50 0v40h65v293h-45v40h45v162c0 50 18.667 92 56 126s84.333 51 141 51c55.333 0 104.333 -17 147 -51l-29 -33c-33.333 28 -73 42 -119 42c-48 0 -85.5 -13.333 -112.5 -40s-40.5 -59.667 -40.5 -99v-158h198v-40h-198v-293h351v-40h-459z" />
    <glyph glyph-name="currency" unicode="&#xa4;" horiz-adv-x="585" 
d="M133 0v190h-74v40h74v80h-74v40h74v350h197c62 0 113 -17.5 153 -52.5s60 -82.167 60 -141.5s-20 -106.833 -60 -142.5s-91 -53.5 -153 -53.5h-154v-80h255v-40h-255v-190h-43zM176 350l152 -0.000976562c52 0 93.333 13.833 124 41.5s46 65.834 46 114.501
s-15.333 86.5 -46 113.5s-72 40.5 -124 40.5h-152v-310z" />
    <glyph glyph-name="yen" unicode="&#xa5;" horiz-adv-x="560" 
d="M96 222v40h163v42l-29 48h-134v40h110l-185 308h49l166 -276l43 -79h2c14.667 30 29 56.333 43 79l166 276h49l-185 -308h108v-40h-132l-28 -48v-42h160v-40h-160v-222h-43v222h-163z" />
    <glyph glyph-name="section" unicode="&#xa7;" horiz-adv-x="387" 
d="M142 62l-66.999 474c-1.33301 10.667 -2 19 -2 25c0 43.333 14.833 79.333 44.5 108s67.5 43 113.5 43c34.667 0 65.667 -11 93 -33l-26 -32c-20.667 16 -43.334 24 -68.001 24c-32 0 -58.833 -10.333 -80.5 -31s-32.5 -48 -32.5 -82c0 -4.66699 0.666992 -11.667 2 -21
l65 -475h-42zM63.001 -29l26 32c20 -16 42.667 -24 68 -24c32 0 58.667 10.333 80 31s32 48 32 82c0 9.33301 -0.333008 16.333 -1 21l-65 475h42l67 -474c1.33301 -12 2 -20.333 2 -25c0 -43.333 -15 -79.333 -45 -108s-67.667 -43 -113 -43c-32 0 -63 11 -93 33z" />
    <glyph glyph-name="dieresis" unicode="&#xa8;" horiz-adv-x="509" 
d="M300 788v73h46v-73h-46zM163 788v73h46v-73h-46z" />
    <glyph glyph-name="copyright" unicode="&#xa9;" horiz-adv-x="835" 
d="M64 350c0 100.667 34.333 186.167 103 256.5s151.667 105.5 249 105.5c99.333 0 183.5 -35.167 252.5 -105.5s103.5 -155.833 103.5 -256.5c0 -101.333 -34.5 -187 -103.5 -257s-153.167 -105 -252.5 -105c-98 0 -181.167 35 -249.5 105s-102.5 155.667 -102.5 257z
M109 350c0 -90.667 29.5 -166.667 88.5 -228s131.833 -92 218.5 -92c88 0 161.833 30.667 221.5 92s89.5 137.333 89.5 228c0 90 -29.833 165.833 -89.5 227.5s-133.5 92.5 -221.5 92.5c-86.667 0 -159.5 -30.833 -218.5 -92.5s-88.5 -137.5 -88.5 -227.5zM213 349
c0 56.667 18.999 106 56.999 148s90.667 63 158 63c31.333 0 61.666 -8 90.999 -24s53.333 -37.333 72 -64l-33 -29c-14 21.333 -32.667 39 -56 53s-47.666 21 -72.999 21c-54 0 -96 -16.5 -126 -49.5s-45 -72.167 -45 -117.5s15 -84.5 45 -117.5s72 -49.5 126 -49.5
c25.333 0 49.5 6.83301 72.5 20.5s41.833 31.5 56.5 53.5l33 -29c-16.667 -25.333 -40.167 -46.333 -70.5 -63s-61.166 -25 -92.499 -25c-67.333 0 -120 20.667 -158 62s-57 90.333 -57 147z" />
    <glyph glyph-name="ordfeminine" unicode="&#xaa;" horiz-adv-x="423" 
d="M197 382c-30 0 -56 7.99902 -78 23.999s-33 39 -33 69c0 74 64.667 111 194 111h14v4c0 55.333 -25.333 83 -76 83c-30 0 -58.667 -9.66699 -86 -29l-22 30c30 24 66.333 36 109 36c76 0 114 -40 114 -120v-202h-39v51h-2c-8 -15.333 -20.5 -28.666 -37.5 -39.999
s-36.167 -17 -57.5 -17zM198 418.999c28.667 0 51.833 12.501 69.5 37.501s26.5 52.833 26.5 83.5v10h-13c-102.667 0 -154 -23.667 -154 -71c0 -16.667 6.16699 -30.834 18.5 -42.501s29.833 -17.5 52.5 -17.5zM82.999 263v37h253v-37h-253z" />
    <glyph glyph-name="guillemotleft" unicode="&#xab;" horiz-adv-x="494" 
d="M215 282l164 206h53l-164 -206l164 -205h-53zM219 77l-164 205l164 206h53l-164 -206l164 -205h-53z" />
    <glyph glyph-name="logicalnot" unicode="&#xac;" horiz-adv-x="629" 
d="M90 343v40h456v-219h-42v179h-414z" />
    <glyph glyph-name="uni00AD" unicode="&#xad;" horiz-adv-x="432" 
d="M78 263v40h276v-40h-276z" />
    <glyph glyph-name="registered" unicode="&#xae;" horiz-adv-x="835" 
d="M64 350c0 100.667 34.333 186.167 103 256.5s151.667 105.5 249 105.5c99.333 0 183.5 -35.167 252.5 -105.5s103.5 -155.833 103.5 -256.5c0 -101.333 -34.5 -187 -103.5 -257s-153.167 -105 -252.5 -105c-98 0 -181.167 35 -249.5 105s-102.5 155.667 -102.5 257z
M109 350c0 -90.667 29.5 -166.667 88.5 -228s131.833 -92 218.5 -92c88 0 161.833 30.667 221.5 92s89.5 137.333 89.5 228c0 90 -29.833 165.833 -89.5 227.5s-133.5 92.5 -221.5 92.5c-86.667 0 -159.5 -30.833 -218.5 -92.5s-88.5 -137.5 -88.5 -227.5zM300 150v399.999
h133c34 0 61.833 -10.667 83.5 -32s32.5 -49.333 32.5 -84c0 -28 -7.33301 -51.5 -22 -70.5s-33 -31.167 -55 -36.5v-2c2.66699 -3.33301 7 -10.666 13 -21.999l79 -153h-49l-85 167h-86v-167h-44zM344 354.999h84c23.333 0 41.833 7 55.5 21s20.5 33.333 20.5 58
c0 24 -6.83301 42.667 -20.5 56s-32.167 20 -55.5 20h-84v-155z" />
    <glyph glyph-name="macron" unicode="&#xaf;" horiz-adv-x="509" 
d="M135 786v40h239v-40h-239z" />
    <glyph glyph-name="degree" unicode="&#xb0;" horiz-adv-x="388" 
d="M194 449c-36 0 -66.667 12.667 -92 38s-38 56 -38 92s12.667 66.833 38 92.5s56 38.5 92 38.5s66.833 -12.833 92.5 -38.5s38.5 -56.5 38.5 -92.5s-12.833 -66.667 -38.5 -92s-56.5 -38 -92.5 -38zM194 489c24.667 0 45.5 8.66699 62.5 26s25.5 38.666 25.5 63.999
s-8.5 46.833 -25.5 64.5s-37.833 26.5 -62.5 26.5s-45.334 -8.83301 -62.001 -26.5s-25 -39.167 -25 -64.5s8.33301 -46.666 25 -63.999s37.334 -26 62.001 -26z" />
    <glyph glyph-name="plusminus" unicode="&#xb1;" horiz-adv-x="560" 
d="M22 263v40h237v263h43v-263h236v-40h-236v-263h-43v263h-237zM42 -113h476v-40h-476v40z" />
    <glyph glyph-name="twosuperior" unicode="&#xb2;" 
d="M54 423c-1.33301 12 -2.00098 21.0029 -2.00098 27.0029c0 25.333 5.5 48.5 16.5 69.5s24.667 38.167 41 51.5s34 26.833 53 40.5l53 37.5c16.333 11.333 30 25.166 41 41.499s16.5 34.166 16.5 53.499c0 24 -8.5 44.5 -25.5 61.5s-38.833 25.5 -65.5 25.5
c-35.333 0 -66.666 -16.667 -93.999 -50l-24 26c12 16.667 28.833 30.834 50.5 42.501s44.167 17.5 67.5 17.5c41.333 0 73.333 -11.833 96 -35.5s34 -52.834 34 -87.501c0 -27.333 -7.5 -51.833 -22.5 -73.5s-33.167 -39.834 -54.5 -54.501l-64.5 -42.5
c-21.667 -13.667 -40.167 -30.167 -55.5 -49.5s-23.333 -41 -24 -65h229v-36h-266z" />
    <glyph glyph-name="threesuperior" unicode="&#xb3;" 
d="M179 413c-26.667 0 -52.5 5.5 -77.5 16.5s-45.167 27.167 -60.5 48.5l28 26c10 -14.667 25 -27.5 45 -38.5s42 -16.5 66 -16.5c26 0 49.667 9.83301 71 29.5s32 43.5 32 71.5c0 28.667 -10.833 51.834 -32.5 69.501s-46.5 26.5 -74.5 26.5h-32l-11 24l108 127l25 25v2
c-12 -2 -24.667 -3 -38 -3h-164v36h255v-26l-128 -150c34 -2.66699 64.333 -14.334 91 -35.001s40 -52.667 40 -96c0 -38 -14.167 -70.333 -42.5 -97s-61.833 -40 -100.5 -40z" />
    <glyph glyph-name="acute" unicode="&#xb4;" horiz-adv-x="509" 
d="M193 750l67 111h56l-79 -111h-44z" />
    <glyph glyph-name="mu" unicode="&#xb5;" horiz-adv-x="578" 
d="M130 39c4 -34 5.99805 -58 5.99805 -72v-167h-42v700h42v-302c0 -25.333 1.33301 -46.5 4 -63.5s7.83398 -34.333 15.501 -52s20 -31 37 -40s38.833 -13.5 65.5 -13.5c61.333 0 111 22.5 149 67.5s57 98.167 57 159.5v244h42v-500h-42v83l2 41h-2
c-1.33301 -4 -3.5 -9 -6.5 -15s-10.167 -16.833 -21.5 -32.5s-24.166 -29.5 -38.499 -41.5s-34 -22.833 -59 -32.5s-52.167 -14.5 -81.5 -14.5c-60 0 -101.667 17 -125 51h-2z" />
    <glyph glyph-name="mu" unicode="&#x3bc;" horiz-adv-x="578" 
d="M130 39c4 -34 5.99805 -58 5.99805 -72v-167h-42v700h42v-302c0 -25.333 1.33301 -46.5 4 -63.5s7.83398 -34.333 15.501 -52s20 -31 37 -40s38.833 -13.5 65.5 -13.5c61.333 0 111 22.5 149 67.5s57 98.167 57 159.5v244h42v-500h-42v83l2 41h-2
c-1.33301 -4 -3.5 -9 -6.5 -15s-10.167 -16.833 -21.5 -32.5s-24.166 -29.5 -38.499 -41.5s-34 -22.833 -59 -32.5s-52.167 -14.5 -81.5 -14.5c-60 0 -101.667 17 -125 51h-2z" />
    <glyph glyph-name="paragraph" unicode="&#xb6;" horiz-adv-x="543" 
d="M282 -50l-0.000976562 291c-65.333 0 -121.666 22.333 -168.999 67s-71 99 -71 163s23.5 118.167 70.5 162.5s103.167 66.5 168.5 66.5h210v-40h-167v-710h-42zM385.999 -50v647h42v-647h-42z" />
    <glyph glyph-name="periodcentered" unicode="&#xb7;" horiz-adv-x="217" 
d="M78 255v63h61v-63h-61z" />
    <glyph glyph-name="cedilla" unicode="&#xb8;" horiz-adv-x="509" 
d="M209 -93l24 111l32 -5v-8l-12 -65c20.667 -3.33301 37.334 -11 50.001 -23s19 -27 19 -45c0 -26 -8.66699 -45.167 -26 -57.5s-39 -18.5 -65 -18.5c-16.667 0 -31.334 1.33301 -44.001 4v38c11.333 -3.33301 25 -5 41 -5c36 0 54 12.333 54 37
c0 25.333 -20.333 38 -61 38z" />
    <glyph glyph-name="onesuperior" unicode="&#xb9;" 
d="M83 423l0.000976562 36h96v325l1 22h-1c-2.66699 -5.33301 -10.334 -14.333 -23.001 -27l-44 -43l-26 27l93 94h38v-398h93v-36h-227z" />
    <glyph glyph-name="ordmasculine" unicode="&#xba;" horiz-adv-x="488" 
d="M243 383c-45.333 0 -83.833 16 -115.5 48s-47.5 71.333 -47.5 118c0 45.333 15.833 83.666 47.5 114.999s70.167 47 115.5 47s83.833 -15.667 115.5 -47s47.5 -69.666 47.5 -114.999c0 -46.667 -15.833 -86 -47.5 -118s-70.167 -48 -115.5 -48zM243 420
c34.667 0 64 12.333 88 37s36 55.334 36 92.001c0 36 -12 65.833 -36 89.5s-53.333 35.5 -88 35.5s-64 -11.833 -88 -35.5s-36 -53.5 -36 -89.5c0 -36.667 12 -67.334 36 -92.001s53.333 -37 88 -37zM98 263v37h294v-37h-294z" />
    <glyph glyph-name="guillemotright" unicode="&#xbb;" horiz-adv-x="494" 
d="M222 77l164 205l-164 206h53l164 -206l-164 -205h-53zM62 77l164 205l-164 206h53l164 -206l-164 -205h-53z" />
    <glyph glyph-name="onequarter" unicode="&#xbc;" horiz-adv-x="911" 
d="M761 0v121h-215v26l222 287h31v-277h68v-36h-68v-121h-38zM601 157h160v147l3 65h-2c-11.333 -18 -23 -34.667 -35 -50l-126 -160v-2zM63 266l0.000976562 36h96v325l1 22h-1c-2.66699 -5.33301 -10.334 -14.333 -23.001 -27l-44 -43l-26 27l93 94h38v-398h93v-36h-227z
M295.001 0h-44l336 700h43z" />
    <glyph glyph-name="onehalf" unicode="&#xbd;" horiz-adv-x="899" 
d="M295 0h-44l336 700h43zM63 266l0.000976562 36h96v325l1 22h-1c-2.66699 -5.33301 -10.334 -14.333 -23.001 -27l-44 -43l-26 27l93 94h38v-398h93v-36h-227zM576.001 0c-1.33301 12 -2.00098 21.0029 -2.00098 27.0029c0 25.333 5.5 48.5 16.5 69.5
s24.667 38.167 41 51.5s34 26.833 53 40.5l53 37.5c16.333 11.333 30 25.166 41 41.499s16.5 34.166 16.5 53.499c0 24 -8.5 44.5 -25.5 61.5s-38.833 25.5 -65.5 25.5c-35.333 0 -66.666 -16.667 -93.999 -50l-24 26c12 16.667 28.833 30.834 50.5 42.501
s44.167 17.5 67.5 17.5c41.333 0 73.333 -11.833 96 -35.5s34 -52.834 34 -87.501c0 -27.333 -7.5 -51.833 -22.5 -73.5s-33.167 -39.834 -54.5 -54.501l-64.5 -42.5c-21.667 -13.667 -40.167 -30.167 -55.5 -49.5s-23.333 -41 -24 -65h229v-36h-266z" />
    <glyph glyph-name="threequarters" unicode="&#xbe;" horiz-adv-x="934" 
d="M189 256c-26.667 0 -52.5 5.5 -77.5 16.5s-45.167 27.167 -60.5 48.5l28 26c10 -14.667 25 -27.5 45 -38.5s42 -16.5 66 -16.5c26 0 49.667 9.83301 71 29.5s32 43.5 32 71.5c0 28.667 -10.833 51.834 -32.5 69.501s-46.5 26.5 -74.5 26.5h-32l-11 24l108 127l25 25v2
c-12 -2 -24.667 -3 -38 -3h-164v36h255v-26l-128 -150c34 -2.66699 64.333 -14.334 91 -35.001s40 -52.667 40 -96c0 -38 -14.167 -70.333 -42.5 -97s-61.833 -40 -100.5 -40zM318 0h-44l336 700h43zM784 0v121h-215v26l222 287h31v-277h68v-36h-68v-121h-38zM624 157h160
v147l3 65h-2c-11.333 -18 -23 -34.667 -35 -50l-126 -160v-2z" />
    <glyph glyph-name="questiondown" unicode="&#xbf;" horiz-adv-x="425" 
d="M267 325v-43.998c0 -30 -6.16699 -57.167 -18.5 -81.5s-27.166 -44.833 -44.499 -61.5l-52.5 -49.5c-17.667 -16.333 -32.667 -35.333 -45 -57s-18.5 -45.834 -18.5 -72.501c0 -36.667 13.667 -67.334 41 -92.001s62.333 -37 105 -37c46.667 0 89 14 127 42l23 -34
c-18 -14.667 -40.667 -26.667 -68 -36s-54.333 -14 -81 -14c-56.667 0 -102.834 16.333 -138.501 49s-53.5 73.667 -53.5 123c0 26 4.5 49.833 13.5 71.5s20.167 39.5 33.5 53.5l43.5 44l43.5 42c13.333 12.667 24.5 28.667 33.5 48s13.5 40 13.5 62v44h43zM275 500.002v-61
h-59v61h59z" />
    <glyph glyph-name="Agrave" unicode="&#xc0;" horiz-adv-x="624" 
d="M27 0l262 700h46l262 -700h-46l-91 242h-297l-90 -242h-46zM178 282h267l-106 284l-26 84h-2c-10 -36 -18.667 -64 -26 -84zM290 750l-79 111h56l67 -111h-44z" />
    <glyph glyph-name="Aacute" unicode="&#xc1;" horiz-adv-x="624" 
d="M27 0l262 700h46l262 -700h-46l-91 242h-297l-90 -242h-46zM178 282h267l-106 284l-26 84h-2c-10 -36 -18.667 -64 -26 -84zM289 750l67 111h56l-79 -111h-44z" />
    <glyph glyph-name="Acircumflex" unicode="&#xc2;" horiz-adv-x="624" 
d="M27 0l262 700h46l262 -700h-46l-91 242h-297l-90 -242h-46zM178 282h267l-106 284l-26 84h-2c-10 -36 -18.667 -64 -26 -84zM206 750l80 111h52l80 -111h-49l-56 80h-2l-56 -80h-49z" />
    <glyph glyph-name="Atilde" unicode="&#xc3;" horiz-adv-x="624" 
d="M27 0l262 700h46l262 -700h-46l-91 242h-297l-90 -242h-46zM178 282h267l-106 284l-26 84h-2c-10 -36 -18.667 -64 -26 -84zM168 753c0 72 27.667 108 83 108c15.333 0 29.166 -3.83301 41.499 -11.5s22 -16.167 29 -25.5s15.5 -17.833 25.5 -25.5s20 -11.5 30 -11.5
c26.667 0 40 23.667 40 71h40c0 -72 -27.667 -108 -83 -108c-15.333 0 -29.166 3.83301 -41.499 11.5s-22 16.167 -29 25.5s-15.5 17.833 -25.5 25.5s-20 11.5 -30 11.5c-26.667 0 -40 -23.667 -40 -71h-40z" />
    <glyph glyph-name="Adieresis" unicode="&#xc4;" horiz-adv-x="624" 
d="M27 0l262 700h46l262 -700h-46l-91 242h-297l-90 -242h-46zM178 282h267l-106 284l-26 84h-2c-10 -36 -18.667 -64 -26 -84zM358 788v73h46v-73h-46zM221 788v73h46v-73h-46z" />
    <glyph glyph-name="Aring" unicode="&#xc5;" horiz-adv-x="624" 
d="M27 0l262 700h46l262 -700h-46l-91 242h-297l-90 -242h-46zM178 282h267l-106 284l-26 84h-2c-10 -36 -18.667 -64 -26 -84zM312 740c-18.667 0 -34.5 6.33301 -47.5 19s-19.5 28.667 -19.5 48s6.5 35.333 19.5 48s28.833 19 47.5 19s34.5 -6.33301 47.5 -19
s19.5 -28.667 19.5 -48s-6.5 -35.333 -19.5 -48s-28.833 -19 -47.5 -19zM312 775c9.33301 0 17 3 23 9s9 13.667 9 23c0 10 -3 18 -9 24s-13.667 9 -23 9s-17 -3 -23 -9s-9 -14 -9 -24c0 -9.33301 3 -17 9 -23s13.667 -9 23 -9z" />
    <glyph glyph-name="AE" unicode="&#xc6;" horiz-adv-x="825" 
d="M23 0l287 700h449v-40h-340v-287h279v-40h-279v-293h359v-40h-402v333h-171l-136 -333h-46zM222 373h154v287h-36z" />
    <glyph glyph-name="Ccedilla" unicode="&#xc7;" horiz-adv-x="720" 
d="M366 -93l17.001 82c-95.333 6.66699 -172.833 44.667 -232.5 114s-89.5 153.333 -89.5 252c0 102 32.667 187 98 255s148.333 102 249 102c104 0 187.333 -29.333 250 -88l-26 -32c-28 24.667 -62 44 -102 58s-80.333 21 -121 21
c-88.667 0 -161.334 -29.833 -218.001 -89.5s-85 -135.167 -85 -226.5c0 -92.667 28.5 -170.167 85.5 -232.5s130.5 -93.5 220.5 -93.5c93.333 0 172.333 31.667 237 95l27 -30c-71.333 -68.667 -157 -104 -257 -106l-9 -48c20.667 -3.33301 37.334 -11 50.001 -23
s19 -27 19 -45c0 -26 -8.66699 -45.167 -26 -57.5s-39 -18.5 -65 -18.5c-16.667 0 -31.334 1.33301 -44.001 4v38c11.333 -3.33301 25 -5 41 -5c36 0 54 12.333 54 37c0 25.333 -20.333 38 -61 38z" />
    <glyph glyph-name="Egrave" unicode="&#xc8;" horiz-adv-x="556" 
d="M107 0v700h383v-40h-340v-287h279v-40h-279v-293h359v-40h-402zM289 750l-79 111h56l67 -111h-44z" />
    <glyph glyph-name="Eacute" unicode="&#xc9;" horiz-adv-x="556" 
d="M107 0v700h383v-40h-340v-287h279v-40h-279v-293h359v-40h-402zM288 750l67 111h56l-79 -111h-44z" />
    <glyph glyph-name="Ecircumflex" unicode="&#xca;" horiz-adv-x="556" 
d="M107 0v700h383v-40h-340v-287h279v-40h-279v-293h359v-40h-402zM205 750l80 111h52l80 -111h-49l-56 80h-2l-56 -80h-49z" />
    <glyph glyph-name="Edieresis" unicode="&#xcb;" horiz-adv-x="556" 
d="M107 0v700h383v-40h-340v-287h279v-40h-279v-293h359v-40h-402zM357 788v73h46v-73h-46zM220 788v73h46v-73h-46z" />
    <glyph glyph-name="Igrave" unicode="&#xcc;" horiz-adv-x="257" 
d="M107 0v700h43v-700h-43zM107 750l-79 111h56l67 -111h-44z" />
    <glyph glyph-name="Iacute" unicode="&#xcd;" horiz-adv-x="257" 
d="M107 0v700h43v-700h-43zM106 750l67 111h56l-79 -111h-44z" />
    <glyph glyph-name="Icircumflex" unicode="&#xce;" horiz-adv-x="257" 
d="M107 0v700h43v-700h-43zM23 750l80 111h52l80 -111h-49l-56 80h-2l-56 -80h-49z" />
    <glyph glyph-name="Idieresis" unicode="&#xcf;" horiz-adv-x="257" 
d="M107 0v700h43v-700h-43zM175 788v73h46v-73h-46zM38 788v73h46v-73h-46z" />
    <glyph glyph-name="Eth" unicode="&#xd0;" horiz-adv-x="744" 
d="M113 0v333h-60v40h60v327h220c105.333 0 189.833 -31 253.5 -93s95.5 -147.667 95.5 -257c0 -110 -31.667 -195.833 -95 -257.5s-148 -92.5 -254 -92.5h-220zM156 40h170c94.667 0 170.167 27 226.5 81s84.5 130.333 84.5 229c0 98 -28.167 174.167 -84.5 228.5
s-131.833 81.5 -226.5 81.5h-170v-287h183v-40h-183v-293z" />
    <glyph glyph-name="Ntilde" unicode="&#xd1;" horiz-adv-x="750" 
d="M107 0v700h40l399 -549l57 -88h2c-3.33301 35.333 -5 64.666 -5 87.999v549h43v-700h-40l-399 549l-57 88h-2c3.33301 -35.333 5 -64.666 5 -87.999v-549h-43zM231 753c0 72 27.667 108 83 108c15.333 0 29.166 -3.83301 41.499 -11.5s22 -16.167 29 -25.5
s15.5 -17.833 25.5 -25.5s20 -11.5 30 -11.5c26.667 0 40 23.667 40 71h40c0 -72 -27.667 -108 -83 -108c-15.333 0 -29.166 3.83301 -41.499 11.5s-22 16.167 -29 25.5s-15.5 17.833 -25.5 25.5s-20 11.5 -30 11.5c-26.667 0 -40 -23.667 -40 -71h-40z" />
    <glyph glyph-name="Ograve" unicode="&#xd2;" horiz-adv-x="826" 
d="M59 355c0 100.667 34 185.334 102 254.001s152 103 252 103s184 -34.333 252 -103s102 -153.334 102 -254.001c0 -103.333 -34 -190.333 -102 -261s-152 -106 -252 -106s-184 35.333 -252 106s-102 157.667 -102 261zM104 355c0 -92 29.5 -169.333 88.5 -232
s132.5 -94 220.5 -94s161.5 31.333 220.5 94s88.5 140 88.5 232c0 90 -29.5 165.167 -88.5 225.5s-132.5 90.5 -220.5 90.5s-161.5 -30.167 -220.5 -90.5s-88.5 -135.5 -88.5 -225.5zM391 750l-79 111h56l67 -111h-44z" />
    <glyph glyph-name="Oacute" unicode="&#xd3;" horiz-adv-x="826" 
d="M59 355c0 100.667 34 185.334 102 254.001s152 103 252 103s184 -34.333 252 -103s102 -153.334 102 -254.001c0 -103.333 -34 -190.333 -102 -261s-152 -106 -252 -106s-184 35.333 -252 106s-102 157.667 -102 261zM104 355c0 -92 29.5 -169.333 88.5 -232
s132.5 -94 220.5 -94s161.5 31.333 220.5 94s88.5 140 88.5 232c0 90 -29.5 165.167 -88.5 225.5s-132.5 90.5 -220.5 90.5s-161.5 -30.167 -220.5 -90.5s-88.5 -135.5 -88.5 -225.5zM390 750l67 111h56l-79 -111h-44z" />
    <glyph glyph-name="Ocircumflex" unicode="&#xd4;" horiz-adv-x="826" 
d="M59 355c0 100.667 34 185.334 102 254.001s152 103 252 103s184 -34.333 252 -103s102 -153.334 102 -254.001c0 -103.333 -34 -190.333 -102 -261s-152 -106 -252 -106s-184 35.333 -252 106s-102 157.667 -102 261zM104 355c0 -92 29.5 -169.333 88.5 -232
s132.5 -94 220.5 -94s161.5 31.333 220.5 94s88.5 140 88.5 232c0 90 -29.5 165.167 -88.5 225.5s-132.5 90.5 -220.5 90.5s-161.5 -30.167 -220.5 -90.5s-88.5 -135.5 -88.5 -225.5zM307 750l80 111h52l80 -111h-49l-56 80h-2l-56 -80h-49z" />
    <glyph glyph-name="Otilde" unicode="&#xd5;" horiz-adv-x="826" 
d="M59 355c0 100.667 34 185.334 102 254.001s152 103 252 103s184 -34.333 252 -103s102 -153.334 102 -254.001c0 -103.333 -34 -190.333 -102 -261s-152 -106 -252 -106s-184 35.333 -252 106s-102 157.667 -102 261zM104 355c0 -92 29.5 -169.333 88.5 -232
s132.5 -94 220.5 -94s161.5 31.333 220.5 94s88.5 140 88.5 232c0 90 -29.5 165.167 -88.5 225.5s-132.5 90.5 -220.5 90.5s-161.5 -30.167 -220.5 -90.5s-88.5 -135.5 -88.5 -225.5zM269 753c0 72 27.667 108 83 108c15.333 0 29.166 -3.83301 41.499 -11.5
s22 -16.167 29 -25.5s15.5 -17.833 25.5 -25.5s20 -11.5 30 -11.5c26.667 0 40 23.667 40 71h40c0 -72 -27.667 -108 -83 -108c-15.333 0 -29.166 3.83301 -41.499 11.5s-22 16.167 -29 25.5s-15.5 17.833 -25.5 25.5s-20 11.5 -30 11.5c-26.667 0 -40 -23.667 -40 -71h-40z
" />
    <glyph glyph-name="Odieresis" unicode="&#xd6;" horiz-adv-x="826" 
d="M59 355c0 100.667 34 185.334 102 254.001s152 103 252 103s184 -34.333 252 -103s102 -153.334 102 -254.001c0 -103.333 -34 -190.333 -102 -261s-152 -106 -252 -106s-184 35.333 -252 106s-102 157.667 -102 261zM104 355c0 -92 29.5 -169.333 88.5 -232
s132.5 -94 220.5 -94s161.5 31.333 220.5 94s88.5 140 88.5 232c0 90 -29.5 165.167 -88.5 225.5s-132.5 90.5 -220.5 90.5s-161.5 -30.167 -220.5 -90.5s-88.5 -135.5 -88.5 -225.5zM459 788v73h46v-73h-46zM322 788v73h46v-73h-46z" />
    <glyph glyph-name="multiply" unicode="&#xd7;" horiz-adv-x="560" 
d="M28 28l224 255l-224 255l30 28l222 -252l222 252l30 -28l-225 -255l225 -255l-30 -28l-222 252l-222 -252z" />
    <glyph glyph-name="Oslash" unicode="&#xd8;" horiz-adv-x="825" 
d="M137 1l50 70c-40 34 -71.333 75.667 -94 125s-34 102 -34 158c0 100.667 34.5 185.5 103.5 254.5s152.5 103.5 250.5 103.5c68.667 0 132.667 -19 192 -57l49 69l34 -25l-49 -69c85.333 -71.333 128 -163.333 128 -276c0 -102 -34.5 -188.5 -103.5 -259.5
s-152.5 -106.5 -250.5 -106.5c-69.333 0 -133.333 19.333 -192 58l-49 -69zM212 106l368.001 514.998c-50 33.333 -105.667 50 -167 50c-86 0 -159 -30.5 -219 -91.5s-90 -136.167 -90 -225.5c0 -49.333 9.66699 -95.666 29 -138.999s45.666 -79.666 78.999 -108.999z
M245.001 79.998c49.333 -34 105 -51.001 167 -51.001c86 0 159.167 31.333 219.5 94s90.5 139.334 90.5 230.001c0 100 -36 181 -108 243z" />
    <glyph glyph-name="Ugrave" unicode="&#xd9;" horiz-adv-x="721" 
d="M99 240l-0.00195312 460h43v-458c0 -65.333 19.667 -117.166 59 -155.499s92.333 -57.5 159 -57.5s119.834 19.167 159.501 57.5s59.5 90.833 59.5 157.5v456h43v-460c0 -76.667 -24.167 -137.834 -72.5 -183.501s-111.166 -68.5 -188.499 -68.5
c-78 0 -141.167 23 -189.5 69s-72.5 107 -72.5 183zM337.998 750l-79 111h56l67 -111h-44z" />
    <glyph glyph-name="Uacute" unicode="&#xda;" horiz-adv-x="721" 
d="M99 240l-0.00195312 460h43v-458c0 -65.333 19.667 -117.166 59 -155.499s92.333 -57.5 159 -57.5s119.834 19.167 159.501 57.5s59.5 90.833 59.5 157.5v456h43v-460c0 -76.667 -24.167 -137.834 -72.5 -183.501s-111.166 -68.5 -188.499 -68.5
c-78 0 -141.167 23 -189.5 69s-72.5 107 -72.5 183zM336.998 750l67 111h56l-79 -111h-44z" />
    <glyph glyph-name="Ucircumflex" unicode="&#xdb;" horiz-adv-x="721" 
d="M99 240l-0.00195312 460h43v-458c0 -65.333 19.667 -117.166 59 -155.499s92.333 -57.5 159 -57.5s119.834 19.167 159.501 57.5s59.5 90.833 59.5 157.5v456h43v-460c0 -76.667 -24.167 -137.834 -72.5 -183.501s-111.166 -68.5 -188.499 -68.5
c-78 0 -141.167 23 -189.5 69s-72.5 107 -72.5 183zM253.998 750l80 111h52l80 -111h-49l-56 80h-2l-56 -80h-49z" />
    <glyph glyph-name="Udieresis" unicode="&#xdc;" horiz-adv-x="721" 
d="M99 240l-0.00195312 460h43v-458c0 -65.333 19.667 -117.166 59 -155.499s92.333 -57.5 159 -57.5s119.834 19.167 159.501 57.5s59.5 90.833 59.5 157.5v456h43v-460c0 -76.667 -24.167 -137.834 -72.5 -183.501s-111.166 -68.5 -188.499 -68.5
c-78 0 -141.167 23 -189.5 69s-72.5 107 -72.5 183zM405.998 788v73h46v-73h-46zM268.998 788v73h46v-73h-46z" />
    <glyph glyph-name="Yacute" unicode="&#xdd;" horiz-adv-x="567" 
d="M262 0v304l-238 396h49l166 -276l43 -79h2c14.667 30 29 56.333 43 79l166 276h49l-237 -396v-304h-43zM260 750l67 111h56l-79 -111h-44z" />
    <glyph glyph-name="Thorn" unicode="&#xde;" horiz-adv-x="593" 
d="M107 0v700h43v-130h187c62 0 113 -18.5 153 -55.5s60 -86.5 60 -148.5c0 -62.667 -20 -112.667 -60 -150s-91.667 -56 -155 -56h-185v-160h-43zM150 200h185c52 0 93.333 14.667 124 44s46 70 46 122s-15.333 92.333 -46 121s-72 43 -124 43h-185v-330z" />
    <glyph glyph-name="germandbls" unicode="&#xdf;" horiz-adv-x="562" 
d="M87 0l-0.000976562 532.001c0 55.333 18.833 99.166 56.5 131.499s81.5 48.5 131.5 48.5c49.333 0 88.5 -13.833 117.5 -41.5s43.5 -59.834 43.5 -96.501c0 -24.667 -6.33301 -47.667 -19 -69s-26.5 -38.166 -41.5 -50.499s-28.833 -26.333 -41.5 -42
s-19 -30.5 -19 -44.5c0 -16 11 -32.833 33 -50.5s46.167 -34 72.5 -49s50.5 -35 72.5 -60s33 -51.833 33 -80.5c0 -43.333 -15 -76.666 -45 -99.999s-66.333 -35 -109 -35c-61.333 0 -112.666 11.667 -153.999 35v46c43.333 -26.667 95 -40 155 -40c30.667 0 56.5 8 77.5 24
s31.5 39.333 31.5 70c0 19.333 -7.16699 37.666 -21.5 54.999s-32 32.5 -53 45.5l-62.5 39c-20.667 13 -38.167 27.833 -52.5 44.5s-21.5 34.667 -21.5 54c0 20 6.33301 39.333 19 58s26.5 34.167 41.5 46.5s28.833 27.833 41.5 46.5s19 37.667 19 57
c0 25.333 -10.5 47.833 -31.5 67.5s-50.167 29.5 -87.5 29.5c-38 0 -71.5 -12.833 -100.5 -38.5s-43.5 -60.167 -43.5 -103.5v-529h-42z" />
    <glyph glyph-name="agrave" unicode="&#xe0;" horiz-adv-x="508" 
d="M41 133c0 23.333 4.33203 44.333 12.999 63s19.334 33.834 32.001 45.501s29.167 21.834 49.5 30.501s38.833 15 55.5 19s36.667 7.16699 60 9.5s41.333 3.66602 54 3.99902s28 0.5 46 0.5h33v17c0 99.333 -45.667 149 -137 149c-53.333 0 -101 -16 -143 -48l-24 34
c19.333 16.667 44.333 30 75 40s62 15 94 15c58 0 102 -16 132 -48s45 -79 45 -141v-323h-42v66l4 45h-2c-13.333 -34.667 -35.5 -63.834 -66.5 -87.501s-67.167 -35.5 -108.5 -35.5c-45.333 0 -85 12.5 -119 37.5s-51 60.833 -51 107.5zM84.999 136
c0 -28.667 11.334 -54 34.001 -76s54 -33 94 -33c51.333 0 92.666 21.833 123.999 65.5s47 92.5 47 146.5v27h-32c-20.667 0 -37.5 -0.166992 -50.5 -0.5s-31.667 -1.66602 -56 -3.99902s-44.333 -6.33301 -60 -12s-32 -13 -49 -22s-29.833 -21.333 -38.5 -37
s-13 -33.834 -13 -54.501zM227 589l-79 111h56l67 -111h-44z" />
    <glyph glyph-name="aacute" unicode="&#xe1;" horiz-adv-x="508" 
d="M41 133c0 23.333 4.33203 44.333 12.999 63s19.334 33.834 32.001 45.501s29.167 21.834 49.5 30.501s38.833 15 55.5 19s36.667 7.16699 60 9.5s41.333 3.66602 54 3.99902s28 0.5 46 0.5h33v17c0 99.333 -45.667 149 -137 149c-53.333 0 -101 -16 -143 -48l-24 34
c19.333 16.667 44.333 30 75 40s62 15 94 15c58 0 102 -16 132 -48s45 -79 45 -141v-323h-42v66l4 45h-2c-13.333 -34.667 -35.5 -63.834 -66.5 -87.501s-67.167 -35.5 -108.5 -35.5c-45.333 0 -85 12.5 -119 37.5s-51 60.833 -51 107.5zM84.999 136
c0 -28.667 11.334 -54 34.001 -76s54 -33 94 -33c51.333 0 92.666 21.833 123.999 65.5s47 92.5 47 146.5v27h-32c-20.667 0 -37.5 -0.166992 -50.5 -0.5s-31.667 -1.66602 -56 -3.99902s-44.333 -6.33301 -60 -12s-32 -13 -49 -22s-29.833 -21.333 -38.5 -37
s-13 -33.834 -13 -54.501zM225 589l67 111h56l-79 -111h-44z" />
    <glyph glyph-name="acircumflex" unicode="&#xe2;" horiz-adv-x="508" 
d="M41 133c0 23.333 4.33203 44.333 12.999 63s19.334 33.834 32.001 45.501s29.167 21.834 49.5 30.501s38.833 15 55.5 19s36.667 7.16699 60 9.5s41.333 3.66602 54 3.99902s28 0.5 46 0.5h33v17c0 99.333 -45.667 149 -137 149c-53.333 0 -101 -16 -143 -48l-24 34
c19.333 16.667 44.333 30 75 40s62 15 94 15c58 0 102 -16 132 -48s45 -79 45 -141v-323h-42v66l4 45h-2c-13.333 -34.667 -35.5 -63.834 -66.5 -87.501s-67.167 -35.5 -108.5 -35.5c-45.333 0 -85 12.5 -119 37.5s-51 60.833 -51 107.5zM84.999 136
c0 -28.667 11.334 -54 34.001 -76s54 -33 94 -33c51.333 0 92.666 21.833 123.999 65.5s47 92.5 47 146.5v27h-32c-20.667 0 -37.5 -0.166992 -50.5 -0.5s-31.667 -1.66602 -56 -3.99902s-44.333 -6.33301 -60 -12s-32 -13 -49 -22s-29.833 -21.333 -38.5 -37
s-13 -33.834 -13 -54.501zM143 589l80 111h52l80 -111h-49l-56 80h-2l-56 -80h-49z" />
    <glyph glyph-name="atilde" unicode="&#xe3;" horiz-adv-x="508" 
d="M41 133c0 23.333 4.33203 44.333 12.999 63s19.334 33.834 32.001 45.501s29.167 21.834 49.5 30.501s38.833 15 55.5 19s36.667 7.16699 60 9.5s41.333 3.66602 54 3.99902s28 0.5 46 0.5h33v17c0 99.333 -45.667 149 -137 149c-53.333 0 -101 -16 -143 -48l-24 34
c19.333 16.667 44.333 30 75 40s62 15 94 15c58 0 102 -16 132 -48s45 -79 45 -141v-323h-42v66l4 45h-2c-13.333 -34.667 -35.5 -63.834 -66.5 -87.501s-67.167 -35.5 -108.5 -35.5c-45.333 0 -85 12.5 -119 37.5s-51 60.833 -51 107.5zM84.999 136
c0 -28.667 11.334 -54 34.001 -76s54 -33 94 -33c51.333 0 92.666 21.833 123.999 65.5s47 92.5 47 146.5v27h-32c-20.667 0 -37.5 -0.166992 -50.5 -0.5s-31.667 -1.66602 -56 -3.99902s-44.333 -6.33301 -60 -12s-32 -13 -49 -22s-29.833 -21.333 -38.5 -37
s-13 -33.834 -13 -54.501zM105 592c0 72 27.667 108 83 108c15.333 0 29.166 -3.83301 41.499 -11.5s22 -16.167 29 -25.5s15.5 -17.833 25.5 -25.5s20 -11.5 30 -11.5c26.667 0 40 23.667 40 71h40c0 -72 -27.667 -108 -83 -108c-15.333 0 -29.166 3.83301 -41.499 11.5
s-22 16.167 -29 25.5s-15.5 17.833 -25.5 25.5s-20 11.5 -30 11.5c-26.667 0 -40 -23.667 -40 -71h-40z" />
    <glyph glyph-name="adieresis" unicode="&#xe4;" horiz-adv-x="508" 
d="M41 133c0 23.333 4.33203 44.333 12.999 63s19.334 33.834 32.001 45.501s29.167 21.834 49.5 30.501s38.833 15 55.5 19s36.667 7.16699 60 9.5s41.333 3.66602 54 3.99902s28 0.5 46 0.5h33v17c0 99.333 -45.667 149 -137 149c-53.333 0 -101 -16 -143 -48l-24 34
c19.333 16.667 44.333 30 75 40s62 15 94 15c58 0 102 -16 132 -48s45 -79 45 -141v-323h-42v66l4 45h-2c-13.333 -34.667 -35.5 -63.834 -66.5 -87.501s-67.167 -35.5 -108.5 -35.5c-45.333 0 -85 12.5 -119 37.5s-51 60.833 -51 107.5zM84.999 136
c0 -28.667 11.334 -54 34.001 -76s54 -33 94 -33c51.333 0 92.666 21.833 123.999 65.5s47 92.5 47 146.5v27h-32c-20.667 0 -37.5 -0.166992 -50.5 -0.5s-31.667 -1.66602 -56 -3.99902s-44.333 -6.33301 -60 -12s-32 -13 -49 -22s-29.833 -21.333 -38.5 -37
s-13 -33.834 -13 -54.501zM295 627v73h46v-73h-46zM158 627v73h46v-73h-46z" />
    <glyph glyph-name="aring" unicode="&#xe5;" horiz-adv-x="508" 
d="M41 133c0 23.333 4.33203 44.333 12.999 63s19.334 33.834 32.001 45.501s29.167 21.834 49.5 30.501s38.833 15 55.5 19s36.667 7.16699 60 9.5s41.333 3.66602 54 3.99902s28 0.5 46 0.5h33v17c0 99.333 -45.667 149 -137 149c-53.333 0 -101 -16 -143 -48l-24 34
c19.333 16.667 44.333 30 75 40s62 15 94 15c58 0 102 -16 132 -48s45 -79 45 -141v-323h-42v66l4 45h-2c-13.333 -34.667 -35.5 -63.834 -66.5 -87.501s-67.167 -35.5 -108.5 -35.5c-45.333 0 -85 12.5 -119 37.5s-51 60.833 -51 107.5zM84.999 136
c0 -28.667 11.334 -54 34.001 -76s54 -33 94 -33c51.333 0 92.666 21.833 123.999 65.5s47 92.5 47 146.5v27h-32c-20.667 0 -37.5 -0.166992 -50.5 -0.5s-31.667 -1.66602 -56 -3.99902s-44.333 -6.33301 -60 -12s-32 -13 -49 -22s-29.833 -21.333 -38.5 -37
s-13 -33.834 -13 -54.501zM249 579c-19.333 0 -35.333 6.5 -48 19.5s-19 28.833 -19 47.5s6.33301 34.5 19 47.5s28.667 19.5 48 19.5s35.333 -6.5 48 -19.5s19 -28.833 19 -47.5s-6.33301 -34.5 -19 -47.5s-28.667 -19.5 -48 -19.5zM249 614c9.33301 0 17 3 23 9
s9 13.667 9 23c0 10 -3 18 -9 24s-13.667 9 -23 9s-17 -3 -23 -9s-9 -14 -9 -24c0 -9.33301 3 -17 9 -23s13.667 -9 23 -9z" />
    <glyph glyph-name="ae" unicode="&#xe6;" horiz-adv-x="869" 
d="M42 133c0 22.667 3.66699 43.002 11 61.002s16.5 32.667 27.5 44s25.5 21.166 43.5 29.499s34.833 14.5 50.5 18.5s35.167 7.16699 58.5 9.5s42.166 3.66602 56.499 3.99902s32.5 0.5 54.5 0.5h40v22c0 99.333 -47 149 -141 149c-51.333 0 -97.666 -16 -138.999 -48
l-24 34c19.333 17.333 44 30.833 74 40.5s60.333 14.5 91 14.5c96 0 153.333 -39 172 -117h2c20 38.667 47.167 67.834 81.5 87.501s73.166 29.5 116.499 29.5c64 0 113.667 -21.333 149 -64s53 -95.667 53 -159c0 -8 -0.666992 -17.333 -2 -28h-391
c0 -73.333 18.833 -130.333 56.5 -171s86.834 -61 147.501 -61c61.333 0 113 21 155 63l23 -35c-22 -20.667 -49.167 -37.334 -81.5 -50.001s-64.5 -19 -96.5 -19c-52 0 -98 13.5 -138 40.5s-69 64.5 -87 112.5h-2c-2 -10 -6.5 -22 -13.5 -36s-17.333 -30.5 -31 -49.5
s-33.167 -35 -58.5 -48s-54 -19.5 -86 -19.5c-48.667 0 -89.5 12.667 -122.5 38s-49.5 61 -49.5 107zM430 300.002h345.001c-2.66699 57.333 -19.334 100.333 -50.001 129s-67.667 43 -111 43c-48 0 -88.667 -14.667 -122 -44s-54 -72 -62 -128zM86.001 136.002
c0 -30 11.333 -55.668 34 -77.001s54 -32 94 -32c51.333 0 92.5 21.833 123.5 65.5s46.5 92.5 46.5 146.5v22h-69c-22.667 0 -42.5 -0.5 -59.5 -1.5s-37 -3.83301 -60 -8.5s-41.667 -11.167 -56 -19.5s-26.833 -20.666 -37.5 -36.999s-16 -35.833 -16 -58.5z" />
    <glyph glyph-name="ccedilla" unicode="&#xe7;" horiz-adv-x="542" 
d="M263 -93l18.0059 82.999c-66 6.66699 -120.5 33.5 -163.5 80.5s-64.5 106.5 -64.5 178.5c0 77.333 25.167 140.5 75.5 189.5s111.166 73.5 182.499 73.5c33.333 0 66.166 -6 98.499 -18s59.166 -29.667 80.499 -53l-26 -34c-18 19.333 -40.833 34.833 -68.5 46.5
s-55.834 17.5 -84.501 17.5c-60 0 -110.667 -20.5 -152 -61.5s-62 -94.5 -62 -160.5c0 -65.333 20.667 -118.333 62 -159s92 -61 152 -61c31.333 0 62 6.33301 92 19s55 30.334 75 53.001l22 -35c-20.667 -23.333 -47.334 -42 -80.001 -56s-67.334 -21.333 -104.001 -22
l-9 -48c20.667 -3.33301 37.334 -11 50.001 -23s19 -27 19 -45c0 -26 -8.66699 -45.167 -26 -57.5s-39 -18.5 -65 -18.5c-16.667 0 -31.334 1.33301 -44.001 4v38c11.333 -3.33301 25 -5 41 -5c36 0 54 12.333 54 37c0 25.333 -20.333 38 -61 38z" />
    <glyph glyph-name="egrave" unicode="&#xe8;" horiz-adv-x="549" 
d="M52 249c0 81.333 23.668 145.503 71.001 192.503s104.666 70.5 171.999 70.5c64.667 0 114.834 -21.833 150.501 -65.5s53.5 -97.834 53.5 -162.501c0 -6 -0.666992 -15 -2 -27h-401c0 -70 20.5 -125.5 61.5 -166.5s91.833 -61.5 152.5 -61.5c61.333 0 113 21 155 63
l23 -35c-22 -20.667 -49.167 -37.334 -81.5 -50.001s-64.5 -19 -96.5 -19c-72.667 0 -133.834 24.167 -183.501 72.5s-74.5 111.166 -74.5 188.499zM99.001 296.003h356c-2.66699 58 -19 102 -49 132s-67.333 45 -112 45c-48.667 0 -91.167 -15.5 -127.5 -46.5
s-58.833 -74.5 -67.5 -130.5zM276.001 589.003l-79 111h56l67 -111h-44z" />
    <glyph glyph-name="eacute" unicode="&#xe9;" horiz-adv-x="549" 
d="M52 249c0 81.333 23.668 145.503 71.001 192.503s104.666 70.5 171.999 70.5c64.667 0 114.834 -21.833 150.501 -65.5s53.5 -97.834 53.5 -162.501c0 -6 -0.666992 -15 -2 -27h-401c0 -70 20.5 -125.5 61.5 -166.5s91.833 -61.5 152.5 -61.5c61.333 0 113 21 155 63
l23 -35c-22 -20.667 -49.167 -37.334 -81.5 -50.001s-64.5 -19 -96.5 -19c-72.667 0 -133.834 24.167 -183.501 72.5s-74.5 111.166 -74.5 188.499zM99.001 296.003h356c-2.66699 58 -19 102 -49 132s-67.333 45 -112 45c-48.667 0 -91.167 -15.5 -127.5 -46.5
s-58.833 -74.5 -67.5 -130.5zM274.001 589.003l67 111h56l-79 -111h-44z" />
    <glyph glyph-name="ecircumflex" unicode="&#xea;" horiz-adv-x="549" 
d="M52 249c0 81.333 23.668 145.503 71.001 192.503s104.666 70.5 171.999 70.5c64.667 0 114.834 -21.833 150.501 -65.5s53.5 -97.834 53.5 -162.501c0 -6 -0.666992 -15 -2 -27h-401c0 -70 20.5 -125.5 61.5 -166.5s91.833 -61.5 152.5 -61.5c61.333 0 113 21 155 63
l23 -35c-22 -20.667 -49.167 -37.334 -81.5 -50.001s-64.5 -19 -96.5 -19c-72.667 0 -133.834 24.167 -183.501 72.5s-74.5 111.166 -74.5 188.499zM99.001 296.003h356c-2.66699 58 -19 102 -49 132s-67.333 45 -112 45c-48.667 0 -91.167 -15.5 -127.5 -46.5
s-58.833 -74.5 -67.5 -130.5zM191.001 589.003l80 111h52l80 -111h-49l-56 80h-2l-56 -80h-49z" />
    <glyph glyph-name="edieresis" unicode="&#xeb;" horiz-adv-x="549" 
d="M52 249c0 81.333 23.668 145.503 71.001 192.503s104.666 70.5 171.999 70.5c64.667 0 114.834 -21.833 150.501 -65.5s53.5 -97.834 53.5 -162.501c0 -6 -0.666992 -15 -2 -27h-401c0 -70 20.5 -125.5 61.5 -166.5s91.833 -61.5 152.5 -61.5c61.333 0 113 21 155 63
l23 -35c-22 -20.667 -49.167 -37.334 -81.5 -50.001s-64.5 -19 -96.5 -19c-72.667 0 -133.834 24.167 -183.501 72.5s-74.5 111.166 -74.5 188.499zM99.001 296.003h356c-2.66699 58 -19 102 -49 132s-67.333 45 -112 45c-48.667 0 -91.167 -15.5 -127.5 -46.5
s-58.833 -74.5 -67.5 -130.5zM343.001 627.003v73h46v-73h-46zM206.001 627.003v73h46v-73h-46z" />
    <glyph glyph-name="igrave" unicode="&#xec;" horiz-adv-x="216" 
d="M87 0v500h42v-500h-42zM87 589l-79 111h56l67 -111h-44z" />
    <glyph glyph-name="iacute" unicode="&#xed;" horiz-adv-x="216" 
d="M87 0v500h42v-500h-42zM86 589l67 111h56l-79 -111h-44z" />
    <glyph glyph-name="icircumflex" unicode="&#xee;" horiz-adv-x="216" 
d="M87 0v500h42v-500h-42zM3 589l80 111h52l80 -111h-49l-56 80h-2l-56 -80h-49z" />
    <glyph glyph-name="idieresis" unicode="&#xef;" horiz-adv-x="216" 
d="M87 0v500h42v-500h-42zM155 627v73h46v-73h-46zM18 627v73h46v-73h-46z" />
    <glyph glyph-name="eth" unicode="&#xf0;" horiz-adv-x="577" 
d="M54 230c0 64.667 21.168 120.501 63.501 167.501s101.5 70.5 177.5 70.5c32.667 0 62.5 -5.5 89.5 -16.5s45.833 -22.167 56.5 -33.5l16 -16h2c-24 75.333 -69.667 136.333 -137 183l-172 -80l-17 37l146 68c-44 23.333 -95 42.333 -153 57l12 38
c76 -19.333 138.667 -44 188 -74l123 58l17 -37l-101 -47c104 -79.333 156 -191 156 -335c0 -34.667 -4.83301 -68.167 -14.5 -100.5s-24 -62.333 -43 -90s-44.5 -49.834 -76.5 -66.501s-68 -25 -108 -25c-68.667 0 -123.334 24.167 -164.001 72.5s-61 104.833 -61 169.5z
M98.001 230.001c0 -54 16.6689 -101.167 50.002 -141.5s77.666 -60.5 132.999 -60.5c43.333 0 80.333 12.5 111 37.5s52.5 54.667 65.5 89s19.5 70.5 19.5 108.5c0 48 -16.833 87.5 -50.5 118.5s-77.834 46.5 -132.501 46.5c-62.667 0 -111 -19.5 -145 -58.5
s-51 -85.5 -51 -139.5z" />
    <glyph glyph-name="ntilde" unicode="&#xf1;" horiz-adv-x="586" 
d="M87 0l0.00488281 499.999h42v-88l-4 -41h2c11.333 32 35.666 63.5 72.999 94.5s83.666 46.5 138.999 46.5c61.333 0 104.166 -16.5 128.499 -49.5s36.5 -81.5 36.5 -145.5v-317h-42v302c0 20 -0.666992 37.167 -2 51.5s-4.33301 29.333 -9 45s-11.334 28.5 -20.001 38.5
s-20.834 18.167 -36.501 24.5s-34.167 9.5 -55.5 9.5c-58 0 -107.5 -21.167 -148.5 -63.5s-61.5 -95.166 -61.5 -158.499v-249h-42zM163.005 591.999c0 72 27.667 108 83 108c15.333 0 29.166 -3.83301 41.499 -11.5s22 -16.167 29 -25.5s15.5 -17.833 25.5 -25.5
s20 -11.5 30 -11.5c26.667 0 40 23.667 40 71h40c0 -72 -27.667 -108 -83 -108c-15.333 0 -29.166 3.83301 -41.499 11.5s-22 16.167 -29 25.5s-15.5 17.833 -25.5 25.5s-20 11.5 -30 11.5c-26.667 0 -40 -23.667 -40 -71h-40z" />
    <glyph glyph-name="ograve" unicode="&#xf2;" horiz-adv-x="620" 
d="M51 253c0 72.667 25.167 134 75.5 184s111.5 75 183.5 75s133.167 -25 183.5 -75s75.5 -111.333 75.5 -184c0 -74 -25.167 -136.667 -75.5 -188s-111.5 -77 -183.5 -77s-133.167 25.667 -183.5 77s-75.5 114 -75.5 188zM95 253c0 -63.333 20.833 -116.5 62.5 -159.5
s92.5 -64.5 152.5 -64.5s110.833 21.5 152.5 64.5s62.5 96.167 62.5 159.5c0 61.333 -20.833 113 -62.5 155s-92.5 63 -152.5 63s-110.833 -21 -152.5 -63s-62.5 -93.667 -62.5 -155zM288 589l-79 111h56l67 -111h-44z" />
    <glyph glyph-name="oacute" unicode="&#xf3;" horiz-adv-x="620" 
d="M51 253c0 72.667 25.167 134 75.5 184s111.5 75 183.5 75s133.167 -25 183.5 -75s75.5 -111.333 75.5 -184c0 -74 -25.167 -136.667 -75.5 -188s-111.5 -77 -183.5 -77s-133.167 25.667 -183.5 77s-75.5 114 -75.5 188zM95 253c0 -63.333 20.833 -116.5 62.5 -159.5
s92.5 -64.5 152.5 -64.5s110.833 21.5 152.5 64.5s62.5 96.167 62.5 159.5c0 61.333 -20.833 113 -62.5 155s-92.5 63 -152.5 63s-110.833 -21 -152.5 -63s-62.5 -93.667 -62.5 -155zM287 589l67 111h56l-79 -111h-44z" />
    <glyph glyph-name="ocircumflex" unicode="&#xf4;" horiz-adv-x="620" 
d="M51 253c0 72.667 25.167 134 75.5 184s111.5 75 183.5 75s133.167 -25 183.5 -75s75.5 -111.333 75.5 -184c0 -74 -25.167 -136.667 -75.5 -188s-111.5 -77 -183.5 -77s-133.167 25.667 -183.5 77s-75.5 114 -75.5 188zM95 253c0 -63.333 20.833 -116.5 62.5 -159.5
s92.5 -64.5 152.5 -64.5s110.833 21.5 152.5 64.5s62.5 96.167 62.5 159.5c0 61.333 -20.833 113 -62.5 155s-92.5 63 -152.5 63s-110.833 -21 -152.5 -63s-62.5 -93.667 -62.5 -155zM204 589l80 111h52l80 -111h-49l-56 80h-2l-56 -80h-49z" />
    <glyph glyph-name="otilde" unicode="&#xf5;" horiz-adv-x="620" 
d="M51 253c0 72.667 25.167 134 75.5 184s111.5 75 183.5 75s133.167 -25 183.5 -75s75.5 -111.333 75.5 -184c0 -74 -25.167 -136.667 -75.5 -188s-111.5 -77 -183.5 -77s-133.167 25.667 -183.5 77s-75.5 114 -75.5 188zM95 253c0 -63.333 20.833 -116.5 62.5 -159.5
s92.5 -64.5 152.5 -64.5s110.833 21.5 152.5 64.5s62.5 96.167 62.5 159.5c0 61.333 -20.833 113 -62.5 155s-92.5 63 -152.5 63s-110.833 -21 -152.5 -63s-62.5 -93.667 -62.5 -155zM166 592c0 72 27.667 108 83 108c15.333 0 29.166 -3.83301 41.499 -11.5
s22 -16.167 29 -25.5s15.5 -17.833 25.5 -25.5s20 -11.5 30 -11.5c26.667 0 40 23.667 40 71h40c0 -72 -27.667 -108 -83 -108c-15.333 0 -29.166 3.83301 -41.499 11.5s-22 16.167 -29 25.5s-15.5 17.833 -25.5 25.5s-20 11.5 -30 11.5c-26.667 0 -40 -23.667 -40 -71h-40z
" />
    <glyph glyph-name="odieresis" unicode="&#xf6;" horiz-adv-x="620" 
d="M51 253c0 72.667 25.167 134 75.5 184s111.5 75 183.5 75s133.167 -25 183.5 -75s75.5 -111.333 75.5 -184c0 -74 -25.167 -136.667 -75.5 -188s-111.5 -77 -183.5 -77s-133.167 25.667 -183.5 77s-75.5 114 -75.5 188zM95 253c0 -63.333 20.833 -116.5 62.5 -159.5
s92.5 -64.5 152.5 -64.5s110.833 21.5 152.5 64.5s62.5 96.167 62.5 159.5c0 61.333 -20.833 113 -62.5 155s-92.5 63 -152.5 63s-110.833 -21 -152.5 -63s-62.5 -93.667 -62.5 -155zM356 627v73h46v-73h-46zM219 627v73h46v-73h-46z" />
    <glyph glyph-name="divide" unicode="&#xf7;" horiz-adv-x="560" 
d="M251 431v59h57v-59h-57zM42 263v40h476v-40h-476zM251 76v59h57v-59h-57z" />
    <glyph glyph-name="oslash" unicode="&#xf8;" horiz-adv-x="621" 
d="M110 -3l36 51c-62.667 52 -94 120.333 -94 205c0 72.667 25.167 134 75.5 184s111.5 75 183.5 75c50.667 0 96.667 -13 138 -39l38 53l34 -26l-38 -53c58 -51.333 87 -116 87 -194c0 -74 -25.167 -136.667 -75.5 -188s-111.5 -77 -183.5 -77
c-48 0 -91.333 11.667 -130 35l-37 -52zM170 82l255 357c-35.333 21.333 -73.333 32 -114 32c-60 0 -110.833 -21 -152.5 -63s-62.5 -93.667 -62.5 -155c0 -69.333 24.667 -126.333 74 -171zM205 57c32 -18.667 67.333 -28 106 -28c60 0 110.833 21.5 152.5 64.5
s62.5 96.167 62.5 159.5c0 64 -22.667 117 -68 159z" />
    <glyph glyph-name="ugrave" unicode="&#xf9;" horiz-adv-x="580" 
d="M81 183l-0.00292969 317h42v-302c0 -20 0.666992 -37.167 2 -51.5s4.33301 -29.333 9 -45s11.334 -28.5 20.001 -38.5s20.834 -18.167 36.501 -24.5s34.167 -9.5 55.5 -9.5c60 0 109.167 22.5 147.5 67.5s57.5 98.167 57.5 159.5v244h42v-500h-42v88l4 41h-2
c-11.333 -32 -35.333 -63.5 -72 -94.5s-81.667 -46.5 -135 -46.5c-59.333 0 -101.666 16 -126.999 48s-38 81 -38 147zM265.997 589l-79 111h56l67 -111h-44z" />
    <glyph glyph-name="uacute" unicode="&#xfa;" horiz-adv-x="580" 
d="M81 183l-0.00292969 317h42v-302c0 -20 0.666992 -37.167 2 -51.5s4.33301 -29.333 9 -45s11.334 -28.5 20.001 -38.5s20.834 -18.167 36.501 -24.5s34.167 -9.5 55.5 -9.5c60 0 109.167 22.5 147.5 67.5s57.5 98.167 57.5 159.5v244h42v-500h-42v88l4 41h-2
c-11.333 -32 -35.333 -63.5 -72 -94.5s-81.667 -46.5 -135 -46.5c-59.333 0 -101.666 16 -126.999 48s-38 81 -38 147zM263.997 589l67 111h56l-79 -111h-44z" />
    <glyph glyph-name="ucircumflex" unicode="&#xfb;" horiz-adv-x="580" 
d="M81 183l-0.00292969 317h42v-302c0 -20 0.666992 -37.167 2 -51.5s4.33301 -29.333 9 -45s11.334 -28.5 20.001 -38.5s20.834 -18.167 36.501 -24.5s34.167 -9.5 55.5 -9.5c60 0 109.167 22.5 147.5 67.5s57.5 98.167 57.5 159.5v244h42v-500h-42v88l4 41h-2
c-11.333 -32 -35.333 -63.5 -72 -94.5s-81.667 -46.5 -135 -46.5c-59.333 0 -101.666 16 -126.999 48s-38 81 -38 147zM180.997 589l80 111h52l80 -111h-49l-56 80h-2l-56 -80h-49z" />
    <glyph glyph-name="udieresis" unicode="&#xfc;" horiz-adv-x="580" 
d="M81 183l-0.00292969 317h42v-302c0 -20 0.666992 -37.167 2 -51.5s4.33301 -29.333 9 -45s11.334 -28.5 20.001 -38.5s20.834 -18.167 36.501 -24.5s34.167 -9.5 55.5 -9.5c60 0 109.167 22.5 147.5 67.5s57.5 98.167 57.5 159.5v244h42v-500h-42v88l4 41h-2
c-11.333 -32 -35.333 -63.5 -72 -94.5s-81.667 -46.5 -135 -46.5c-59.333 0 -101.666 16 -126.999 48s-38 81 -38 147zM332.997 627v73h46v-73h-46zM195.997 627v73h46v-73h-46z" />
    <glyph glyph-name="yacute" unicode="&#xfd;" horiz-adv-x="517" 
d="M41 -146c18.667 -16 39.332 -24.001 61.999 -24.001c40 0 72.667 30 98 90l36 83l-207 497h45l165 -399l18 -47h2c4.66699 15.333 10.334 31 17.001 47l165 399h45l-257 -617c-26 -62 -68.333 -93 -127 -93c-14 0 -27.833 2.33301 -41.5 7s-23.5 9.33398 -29.5 14.001
l-10 7zM235.998 588.999l67 111h56l-79 -111h-44z" />
    <glyph glyph-name="thorn" unicode="&#xfe;" horiz-adv-x="578" 
d="M87 -200l-0.000976562 900.001h42v-255l-1 -40h2c12.667 30.667 35 56.167 67 76.5s69 30.5 111 30.5c66 0 118.5 -24 157.5 -72s58.5 -111.333 58.5 -190s-20.667 -142 -62 -190s-94.666 -72 -159.999 -72c-36.667 0 -71.167 9.66699 -103.5 29
s-55.5 45.666 -69.5 78.999h-2c1.33301 -12 2 -26.667 2 -44v-252h-42zM127.999 249.001c0 -59.333 15.667 -111 47 -155s73.666 -66 126.999 -66c50.667 0 93 20 127 60s51 94 51 162c0 66.667 -16.167 120.167 -48.5 160.5s-74.166 60.5 -125.499 60.5
c-50.667 0 -93 -18.5 -127 -55.5s-51 -92.5 -51 -166.5z" />
    <glyph glyph-name="ydieresis" unicode="&#xff;" horiz-adv-x="517" 
d="M41 -146c18.667 -16 39.332 -24.001 61.999 -24.001c40 0 72.667 30 98 90l36 83l-207 497h45l165 -399l18 -47h2c4.66699 15.333 10.334 31 17.001 47l165 399h45l-257 -617c-26 -62 -68.333 -93 -127 -93c-14 0 -27.833 2.33301 -41.5 7s-23.5 9.33398 -29.5 14.001
l-10 7zM304.998 626.999v73h46v-73h-46zM167.998 626.999v73h46v-73h-46z" />
    <glyph glyph-name="Amacron" unicode="&#x100;" horiz-adv-x="624" 
d="M27 0l262 700h46l262 -700h-46l-91 242h-297l-90 -242h-46zM178 282h267l-106 284l-26 84h-2c-10 -36 -18.667 -64 -26 -84zM193 786v40h239v-40h-239z" />
    <glyph glyph-name="amacron" unicode="&#x101;" horiz-adv-x="508" 
d="M41 133c0 23.333 4.33203 44.333 12.999 63s19.334 33.834 32.001 45.501s29.167 21.834 49.5 30.501s38.833 15 55.5 19s36.667 7.16699 60 9.5s41.333 3.66602 54 3.99902s28 0.5 46 0.5h33v17c0 99.333 -45.667 149 -137 149c-53.333 0 -101 -16 -143 -48l-24 34
c19.333 16.667 44.333 30 75 40s62 15 94 15c58 0 102 -16 132 -48s45 -79 45 -141v-323h-42v66l4 45h-2c-13.333 -34.667 -35.5 -63.834 -66.5 -87.501s-67.167 -35.5 -108.5 -35.5c-45.333 0 -85 12.5 -119 37.5s-51 60.833 -51 107.5zM84.999 136
c0 -28.667 11.334 -54 34.001 -76s54 -33 94 -33c51.333 0 92.666 21.833 123.999 65.5s47 92.5 47 146.5v27h-32c-20.667 0 -37.5 -0.166992 -50.5 -0.5s-31.667 -1.66602 -56 -3.99902s-44.333 -6.33301 -60 -12s-32 -13 -49 -22s-29.833 -21.333 -38.5 -37
s-13 -33.834 -13 -54.501zM130 625v40h239v-40h-239z" />
    <glyph glyph-name="Abreve" unicode="&#x102;" horiz-adv-x="624" 
d="M27 0l262 700h46l262 -700h-46l-91 242h-297l-90 -242h-46zM178 282h267l-106 284l-26 84h-2c-10 -36 -18.667 -64 -26 -84zM312 747c-27.333 0 -51 8.50098 -71 25.501s-30 41.167 -30 72.5v16h40v-14c0 -20.667 5.66699 -36.167 17 -46.5s26 -15.5 44 -15.5
c17.333 0 31.833 5.16699 43.5 15.5s17.5 26.166 17.5 47.499v13h40v-16c0 -31.333 -10 -55.5 -30 -72.5s-43.667 -25.5 -71 -25.5z" />
    <glyph glyph-name="abreve" unicode="&#x103;" horiz-adv-x="508" 
d="M41 133c0 23.333 4.33203 44.333 12.999 63s19.334 33.834 32.001 45.501s29.167 21.834 49.5 30.501s38.833 15 55.5 19s36.667 7.16699 60 9.5s41.333 3.66602 54 3.99902s28 0.5 46 0.5h33v17c0 99.333 -45.667 149 -137 149c-53.333 0 -101 -16 -143 -48l-24 34
c19.333 16.667 44.333 30 75 40s62 15 94 15c58 0 102 -16 132 -48s45 -79 45 -141v-323h-42v66l4 45h-2c-13.333 -34.667 -35.5 -63.834 -66.5 -87.501s-67.167 -35.5 -108.5 -35.5c-45.333 0 -85 12.5 -119 37.5s-51 60.833 -51 107.5zM84.999 136
c0 -28.667 11.334 -54 34.001 -76s54 -33 94 -33c51.333 0 92.666 21.833 123.999 65.5s47 92.5 47 146.5v27h-32c-20.667 0 -37.5 -0.166992 -50.5 -0.5s-31.667 -1.66602 -56 -3.99902s-44.333 -6.33301 -60 -12s-32 -13 -49 -22s-29.833 -21.333 -38.5 -37
s-13 -33.834 -13 -54.501zM249 586c-27.333 0 -51 8.50098 -71 25.501s-30 41.167 -30 72.5v16h40v-14c0 -20.667 5.66699 -36.167 17 -46.5s26 -15.5 44 -15.5c17.333 0 31.833 5.16699 43.5 15.5s17.5 26.166 17.5 47.499v13h40v-16c0 -31.333 -10 -55.5 -30 -72.5
s-43.667 -25.5 -71 -25.5z" />
    <glyph glyph-name="Aogonek" unicode="&#x104;" horiz-adv-x="624" 
d="M27 0l262.001 699.998h46l262 -700c-53.333 -39.333 -80 -75.666 -80 -108.999c0 -14.667 5.66699 -26.667 17 -36s22.666 -15 33.999 -17l17 -3l-9 -39c-2.66699 0 -6.33398 0.333008 -11.001 1s-13 2.83398 -25 6.50098s-22.667 8.5 -32 14.5s-17.666 15 -24.999 27
s-11 26 -11 42c0 44 25.333 84 76 120l-88 235h-297l-90 -242h-46zM178.001 281.998h267l-106 284l-26 84h-2c-10 -36 -18.667 -64 -26 -84z" />
    <glyph glyph-name="aogonek" unicode="&#x105;" horiz-adv-x="508" 
d="M41 133c0 23.333 4.33301 44.3311 13 62.998s19.334 33.834 32.001 45.501s29.167 21.834 49.5 30.501s38.833 15 55.5 19s36.667 7.16699 60 9.5s41.333 3.66602 54 3.99902s28 0.5 46 0.5h33v17c0 99.333 -45.667 149 -137 149c-53.333 0 -101 -16 -143 -48l-24 34
c19.333 16.667 44.333 30 75 40s62 15 94 15c58 0 102 -16 132 -48s45 -79 45 -141v-323c-53.333 -39.333 -80 -75.666 -80 -108.999c0 -14.667 5.66699 -26.667 17 -36s22.666 -15 33.999 -17l17 -3l-9 -39c-2.66699 0 -6.33398 0.333008 -11.001 1
s-13 2.83398 -25 6.50098s-22.667 8.5 -32 14.5s-17.666 15 -24.999 27s-11 26 -11 42c0 42 27.667 82 83 120v59l4 45h-2c-13.333 -34.667 -35.5 -63.834 -66.5 -87.501s-67.167 -35.5 -108.5 -35.5c-45.333 0 -85 12.5 -119 37.5s-51 60.833 -51 107.5zM85 135.998
c0 -28.667 11.334 -54 34.001 -76s54 -33 94 -33c51.333 0 92.666 21.833 123.999 65.5s47 92.5 47 146.5v27h-32c-20.667 0 -37.5 -0.166992 -50.5 -0.5s-31.667 -1.66602 -56 -3.99902s-44.333 -6.33301 -60 -12s-32 -13 -49 -22s-29.833 -21.333 -38.5 -37
s-13 -33.834 -13 -54.501z" />
    <glyph glyph-name="Cacute" unicode="&#x106;" horiz-adv-x="719" 
d="M60 355c0 102 32.667 187 98 255s148.333 102 249 102c104 0 187.333 -29.333 250 -88l-26 -32c-28 24.667 -62 44 -102 58s-80.333 21 -121 21c-88.667 0 -161.334 -29.833 -218.001 -89.5s-85 -135.167 -85 -226.5c0 -92.667 28.5 -170.167 85.5 -232.5
s130.5 -93.5 220.5 -93.5c93.333 0 172.333 31.667 237 95l27 -30c-73.333 -70.667 -161.333 -106 -264 -106c-103.333 0 -187.666 35.333 -252.999 106s-98 157.667 -98 261zM379 750l67 111h56l-79 -111h-44z" />
    <glyph glyph-name="cacute" unicode="&#x107;" horiz-adv-x="540" 
d="M52 249c0 77.333 25.1719 140.5 75.5049 189.5s111.166 73.5 182.499 73.5c33.333 0 66.166 -6 98.499 -18s59.166 -29.667 80.499 -53l-26 -34c-18 19.333 -40.833 34.833 -68.5 46.5s-55.834 17.5 -84.501 17.5c-60 0 -110.667 -20.5 -152 -61.5s-62 -94.5 -62 -160.5
c0 -65.333 20.667 -118.333 62 -159s92 -61 152 -61c31.333 0 62 6.33301 92 19s55 30.334 75 53.001l22 -35c-21.333 -24 -48.833 -43 -82.5 -57s-69.167 -21 -106.5 -21c-72.667 0 -133.834 24.167 -183.501 72.5s-74.5 111.166 -74.5 188.499zM269.005 589l67 111h56
l-79 -111h-44z" />
    <glyph glyph-name="Ccircumflex" unicode="&#x108;" horiz-adv-x="719" 
d="M60 355c0 102 32.667 187 98 255s148.333 102 249 102c104 0 187.333 -29.333 250 -88l-26 -32c-28 24.667 -62 44 -102 58s-80.333 21 -121 21c-88.667 0 -161.334 -29.833 -218.001 -89.5s-85 -135.167 -85 -226.5c0 -92.667 28.5 -170.167 85.5 -232.5
s130.5 -93.5 220.5 -93.5c93.333 0 172.333 31.667 237 95l27 -30c-73.333 -70.667 -161.333 -106 -264 -106c-103.333 0 -187.666 35.333 -252.999 106s-98 157.667 -98 261zM296 750l80 111h52l80 -111h-49l-56 80h-2l-56 -80h-49z" />
    <glyph glyph-name="ccircumflex" unicode="&#x109;" horiz-adv-x="540" 
d="M52 249c0 77.333 25.1719 140.5 75.5049 189.5s111.166 73.5 182.499 73.5c33.333 0 66.166 -6 98.499 -18s59.166 -29.667 80.499 -53l-26 -34c-18 19.333 -40.833 34.833 -68.5 46.5s-55.834 17.5 -84.501 17.5c-60 0 -110.667 -20.5 -152 -61.5s-62 -94.5 -62 -160.5
c0 -65.333 20.667 -118.333 62 -159s92 -61 152 -61c31.333 0 62 6.33301 92 19s55 30.334 75 53.001l22 -35c-21.333 -24 -48.833 -43 -82.5 -57s-69.167 -21 -106.5 -21c-72.667 0 -133.834 24.167 -183.501 72.5s-74.5 111.166 -74.5 188.499zM186.005 589l80 111h52
l80 -111h-49l-56 80h-2l-56 -80h-49z" />
    <glyph glyph-name="Cdotaccent" unicode="&#x10a;" horiz-adv-x="719" 
d="M60 355c0 102 32.667 187 98 255s148.333 102 249 102c104 0 187.333 -29.333 250 -88l-26 -32c-28 24.667 -62 44 -102 58s-80.333 21 -121 21c-88.667 0 -161.334 -29.833 -218.001 -89.5s-85 -135.167 -85 -226.5c0 -92.667 28.5 -170.167 85.5 -232.5
s130.5 -93.5 220.5 -93.5c93.333 0 172.333 31.667 237 95l27 -30c-73.333 -70.667 -161.333 -106 -264 -106c-103.333 0 -187.666 35.333 -252.999 106s-98 157.667 -98 261zM379 788v73h46v-73h-46z" />
    <glyph glyph-name="cdotaccent" unicode="&#x10b;" horiz-adv-x="540" 
d="M52 249c0 77.333 25.1719 140.5 75.5049 189.5s111.166 73.5 182.499 73.5c33.333 0 66.166 -6 98.499 -18s59.166 -29.667 80.499 -53l-26 -34c-18 19.333 -40.833 34.833 -68.5 46.5s-55.834 17.5 -84.501 17.5c-60 0 -110.667 -20.5 -152 -61.5s-62 -94.5 -62 -160.5
c0 -65.333 20.667 -118.333 62 -159s92 -61 152 -61c31.333 0 62 6.33301 92 19s55 30.334 75 53.001l22 -35c-21.333 -24 -48.833 -43 -82.5 -57s-69.167 -21 -106.5 -21c-72.667 0 -133.834 24.167 -183.501 72.5s-74.5 111.166 -74.5 188.499zM269.005 627v73h46v-73h-46
z" />
    <glyph glyph-name="Ccaron" unicode="&#x10c;" horiz-adv-x="719" 
d="M60 355c0 102 32.667 187 98 255s148.333 102 249 102c104 0 187.333 -29.333 250 -88l-26 -32c-28 24.667 -62 44 -102 58s-80.333 21 -121 21c-88.667 0 -161.334 -29.833 -218.001 -89.5s-85 -135.167 -85 -226.5c0 -92.667 28.5 -170.167 85.5 -232.5
s130.5 -93.5 220.5 -93.5c93.333 0 172.333 31.667 237 95l27 -30c-73.333 -70.667 -161.333 -106 -264 -106c-103.333 0 -187.666 35.333 -252.999 106s-98 157.667 -98 261zM376 750l-80 111h49l56 -80h2l56 80h49l-80 -111h-52z" />
    <glyph glyph-name="ccaron" unicode="&#x10d;" horiz-adv-x="540" 
d="M52 249c0 77.333 25.1719 140.5 75.5049 189.5s111.166 73.5 182.499 73.5c33.333 0 66.166 -6 98.499 -18s59.166 -29.667 80.499 -53l-26 -34c-18 19.333 -40.833 34.833 -68.5 46.5s-55.834 17.5 -84.501 17.5c-60 0 -110.667 -20.5 -152 -61.5s-62 -94.5 -62 -160.5
c0 -65.333 20.667 -118.333 62 -159s92 -61 152 -61c31.333 0 62 6.33301 92 19s55 30.334 75 53.001l22 -35c-21.333 -24 -48.833 -43 -82.5 -57s-69.167 -21 -106.5 -21c-72.667 0 -133.834 24.167 -183.501 72.5s-74.5 111.166 -74.5 188.499zM266.005 589l-80 111h49
l56 -80h2l56 80h49l-80 -111h-52z" />
    <glyph glyph-name="Dcaron" unicode="&#x10e;" horiz-adv-x="738" 
d="M107 0v700h220c105.333 0 189.833 -31 253.5 -93s95.5 -147.667 95.5 -257c0 -110 -31.667 -195.833 -95 -257.5s-148 -92.5 -254 -92.5h-220zM150 40h170c94.667 0 170.167 27 226.5 81s84.5 130.333 84.5 229c0 98 -28.167 174.167 -84.5 228.5
s-131.833 81.5 -226.5 81.5h-170v-620zM315 750l-80 111h49l56 -80h2l56 80h49l-80 -111h-52z" />
    <glyph glyph-name="dcaron" unicode="&#x10f;" horiz-adv-x="578" 
d="M54 250c0 78.667 20.833 142 62.5 190s95.5 72 161.5 72c38 0 72.333 -10.333 103 -31s54 -48 70 -82h2c-2.66699 12 -4 25.667 -4 41v260h42v-700h-42v63l4 38h-2c-14.667 -32.667 -37.5 -59.667 -68.5 -81s-68.5 -32 -112.5 -32c-66 0 -118.5 24 -157.5 72
s-58.5 111.333 -58.5 190zM98 250c0 -66.667 16.167 -120.167 48.5 -160.5s74.166 -60.5 125.499 -60.5c50.667 0 93 18.5 127 55.5s51 92.5 51 166.5c0 60 -15.167 111.667 -45.5 155s-73.166 65 -128.499 65c-50.667 0 -93 -19.833 -127 -59.5s-51 -93.5 -51 -161.5z
M558 700h48c4 -17.333 6 -33 6 -47c0 -24.667 -7.33301 -53.667 -22 -87h-39c12 31.333 18 57.333 18 78c0 18 -3.66699 36.667 -11 56z" />
    <glyph glyph-name="Dcroat" unicode="&#x110;" horiz-adv-x="744" 
d="M113 0v333h-60v40h60v327h220c105.333 0 189.833 -31 253.5 -93s95.5 -147.667 95.5 -257c0 -110 -31.667 -195.833 -95 -257.5s-148 -92.5 -254 -92.5h-220zM156 40h170c94.667 0 170.167 27 226.5 81s84.5 130.333 84.5 229c0 98 -28.167 174.167 -84.5 228.5
s-131.833 81.5 -226.5 81.5h-170v-287h183v-40h-183v-293z" />
    <glyph glyph-name="dcroat" unicode="&#x111;" horiz-adv-x="578" 
d="M54 250c0 78.667 20.833 141.999 62.5 189.999s95.5 72 161.5 72c37.333 0 71.333 -9.66699 102 -29s53.667 -45.666 69 -78.999h2c-1.33301 12 -2 25.667 -2 41v124h-133v40h133v91h42v-91h83v-40h-83v-569h-42v58l2 38h-2c-12.667 -30 -34.667 -55.5 -66 -76.5
s-69 -31.5 -113 -31.5c-66 0 -118.5 24 -157.5 72s-58.5 111.333 -58.5 190zM98 249.999c0 -66.667 16.167 -120.167 48.5 -160.5s74.166 -60.5 125.499 -60.5c50.667 0 93 18.5 127 55.5s51 92.5 51 166.5c0 60 -15.167 111.833 -45.5 155.5s-73.166 65.5 -128.499 65.5
c-50.667 0 -93 -20 -127 -60s-51 -94 -51 -162z" />
    <glyph glyph-name="Emacron" unicode="&#x112;" horiz-adv-x="556" 
d="M107 0v700h383v-40h-340v-287h279v-40h-279v-293h359v-40h-402zM192 786v40h239v-40h-239z" />
    <glyph glyph-name="emacron" unicode="&#x113;" horiz-adv-x="549" 
d="M52 249c0 81.333 23.668 145.503 71.001 192.503s104.666 70.5 171.999 70.5c64.667 0 114.834 -21.833 150.501 -65.5s53.5 -97.834 53.5 -162.501c0 -6 -0.666992 -15 -2 -27h-401c0 -70 20.5 -125.5 61.5 -166.5s91.833 -61.5 152.5 -61.5c61.333 0 113 21 155 63
l23 -35c-22 -20.667 -49.167 -37.334 -81.5 -50.001s-64.5 -19 -96.5 -19c-72.667 0 -133.834 24.167 -183.501 72.5s-74.5 111.166 -74.5 188.499zM99.001 296.003h356c-2.66699 58 -19 102 -49 132s-67.333 45 -112 45c-48.667 0 -91.167 -15.5 -127.5 -46.5
s-58.833 -74.5 -67.5 -130.5zM178.001 625.003v40h239v-40h-239z" />
    <glyph glyph-name="Ebreve" unicode="&#x114;" horiz-adv-x="556" 
d="M107 0v700h383v-40h-340v-287h279v-40h-279v-293h359v-40h-402zM311 747c-27.333 0 -51 8.50098 -71 25.501s-30 41.167 -30 72.5v16h40v-14c0 -20.667 5.66699 -36.167 17 -46.5s26 -15.5 44 -15.5c17.333 0 31.833 5.16699 43.5 15.5s17.5 26.166 17.5 47.499v13h40
v-16c0 -31.333 -10 -55.5 -30 -72.5s-43.667 -25.5 -71 -25.5z" />
    <glyph glyph-name="ebreve" unicode="&#x115;" horiz-adv-x="549" 
d="M52 249c0 81.333 23.668 145.503 71.001 192.503s104.666 70.5 171.999 70.5c64.667 0 114.834 -21.833 150.501 -65.5s53.5 -97.834 53.5 -162.501c0 -6 -0.666992 -15 -2 -27h-401c0 -70 20.5 -125.5 61.5 -166.5s91.833 -61.5 152.5 -61.5c61.333 0 113 21 155 63
l23 -35c-22 -20.667 -49.167 -37.334 -81.5 -50.001s-64.5 -19 -96.5 -19c-72.667 0 -133.834 24.167 -183.501 72.5s-74.5 111.166 -74.5 188.499zM99.001 296.003h356c-2.66699 58 -19 102 -49 132s-67.333 45 -112 45c-48.667 0 -91.167 -15.5 -127.5 -46.5
s-58.833 -74.5 -67.5 -130.5zM297.001 586.003c-27.333 0 -51 8.50098 -71 25.501s-30 41.167 -30 72.5v16h40v-14c0 -20.667 5.66699 -36.167 17 -46.5s26 -15.5 44 -15.5c17.333 0 31.833 5.16699 43.5 15.5s17.5 26.166 17.5 47.499v13h40v-16
c0 -31.333 -10 -55.5 -30 -72.5s-43.667 -25.5 -71 -25.5z" />
    <glyph glyph-name="Edotaccent" unicode="&#x116;" horiz-adv-x="556" 
d="M107 0v700h383v-40h-340v-287h279v-40h-279v-293h359v-40h-402zM288 788v73h46v-73h-46z" />
    <glyph glyph-name="edotaccent" unicode="&#x117;" horiz-adv-x="549" 
d="M52 249c0 81.333 23.668 145.503 71.001 192.503s104.666 70.5 171.999 70.5c64.667 0 114.834 -21.833 150.501 -65.5s53.5 -97.834 53.5 -162.501c0 -6 -0.666992 -15 -2 -27h-401c0 -70 20.5 -125.5 61.5 -166.5s91.833 -61.5 152.5 -61.5c61.333 0 113 21 155 63
l23 -35c-22 -20.667 -49.167 -37.334 -81.5 -50.001s-64.5 -19 -96.5 -19c-72.667 0 -133.834 24.167 -183.501 72.5s-74.5 111.166 -74.5 188.499zM99.001 296.003h356c-2.66699 58 -19 102 -49 132s-67.333 45 -112 45c-48.667 0 -91.167 -15.5 -127.5 -46.5
s-58.833 -74.5 -67.5 -130.5zM274.001 627.003v73h46v-73h-46z" />
    <glyph glyph-name="Eogonek" unicode="&#x118;" horiz-adv-x="556" 
d="M107 0l0.000976562 699.998h383v-40h-340v-287h279v-40h-279v-293h359v-40c-53.333 -39.333 -80 -75.666 -80 -108.999c0 -14.667 5.66699 -26.667 17 -36s22.666 -15 33.999 -17l17 -3l-9 -39c-2.66699 0 -6.33398 0.333008 -11.001 1s-13 2.83398 -25 6.50098
s-22.667 8.5 -32 14.5s-17.666 15 -24.999 27s-11 26 -11 42c0 40 24.667 77.667 74 113h-351z" />
    <glyph glyph-name="eogonek" unicode="&#x119;" horiz-adv-x="550" 
d="M52 249c0 81.333 23.6689 145.501 71.002 192.501s104.666 70.5 171.999 70.5c64.667 0 114.834 -21.833 150.501 -65.5s53.5 -97.834 53.5 -162.501l-2 -27h-401c0 -70 20.5 -125.5 61.5 -166.5s91.833 -61.5 152.5 -61.5c58 0 109.667 21 155 63l23 -35
c-7.33301 -6.66699 -26 -20.5 -56 -41.5s-53.833 -41.5 -71.5 -61.5s-26.5 -41 -26.5 -63c0 -14.667 5.66699 -26.667 17 -36s22.666 -15 33.999 -17l17 -3l-9 -39c-2.66699 0 -6.33398 0.333008 -11.001 1s-13 2.83398 -25 6.50098s-22.667 8.5 -32 14.5
s-17.666 15 -24.999 27s-11 26 -11 42c0 35.333 18.667 70.333 56 105c-13.333 -2.66699 -25 -4 -35 -4c-72.667 0 -133.834 24.167 -183.501 72.5s-74.5 111.166 -74.5 188.499zM99.002 296.001h356c-2.66699 58 -19 102 -49 132s-67.333 45 -112 45
c-48.667 0 -91.167 -15.5 -127.5 -46.5s-58.833 -74.5 -67.5 -130.5z" />
    <glyph glyph-name="Ecaron" unicode="&#x11a;" horiz-adv-x="556" 
d="M107 0v700h383v-40h-340v-287h279v-40h-279v-293h359v-40h-402zM285 750l-80 111h49l56 -80h2l56 80h49l-80 -111h-52z" />
    <glyph glyph-name="ecaron" unicode="&#x11b;" horiz-adv-x="549" 
d="M52 249c0 81.333 23.668 145.503 71.001 192.503s104.666 70.5 171.999 70.5c64.667 0 114.834 -21.833 150.501 -65.5s53.5 -97.834 53.5 -162.501c0 -6 -0.666992 -15 -2 -27h-401c0 -70 20.5 -125.5 61.5 -166.5s91.833 -61.5 152.5 -61.5c61.333 0 113 21 155 63
l23 -35c-22 -20.667 -49.167 -37.334 -81.5 -50.001s-64.5 -19 -96.5 -19c-72.667 0 -133.834 24.167 -183.501 72.5s-74.5 111.166 -74.5 188.499zM99.001 296.003h356c-2.66699 58 -19 102 -49 132s-67.333 45 -112 45c-48.667 0 -91.167 -15.5 -127.5 -46.5
s-58.833 -74.5 -67.5 -130.5zM271.001 589.003l-80 111h49l56 -80h2l56 80h49l-80 -111h-52z" />
    <glyph glyph-name="Gcircumflex" unicode="&#x11c;" horiz-adv-x="754" 
d="M60 350c0 101.333 33.502 186.998 100.502 256.998s149.833 105 248.5 105c97.333 0 178.666 -26.333 243.999 -79l-26 -33c-26 21.333 -59 38.5 -99 51.5s-79.667 19.5 -119 19.5c-87.333 0 -159.833 -30.667 -217.5 -92s-86.5 -137.666 -86.5 -228.999
s28.167 -167.666 84.5 -228.999s127.5 -92 213.5 -92c45.333 0 89.166 10.333 131.499 31s78.5 48.667 108.5 84v135h-125v40h168v-319h-43v61l1 30h-2c-27.333 -30.667 -62 -55.5 -104 -74.5s-87 -28.5 -135 -28.5c-97.333 0 -178.833 34.833 -244.5 104.5
s-98.5 155.5 -98.5 257.5zM292.002 749.998l80 111h52l80 -111h-49l-56 80h-2l-56 -80h-49z" />
    <glyph glyph-name="gcircumflex" unicode="&#x11d;" horiz-adv-x="571" 
d="M118 -134c43.333 -23.333 87.998 -34.999 133.998 -34.999c56.667 0 102.5 14.167 137.5 42.5s52.5 71.5 52.5 129.5v58l4 41h-2c-33.333 -68 -89.333 -102 -168 -102c-65.333 0 -118.666 23.667 -159.999 71s-62 109.666 -62 186.999c0 78 19.5 139.833 58.5 185.5
s91.167 68.5 156.5 68.5c38.667 0 73.834 -8.16699 105.501 -24.5s54.5 -40.833 68.5 -73.5h2c-2 4.66699 -3 11 -3 19v67h42v-497c0 -72 -21.833 -125.5 -65.5 -160.5s-98.167 -52.5 -163.5 -52.5c-54 0 -106.333 13 -157 39zM97.998 258.001
c0 -66.667 16.667 -119.501 50 -158.501s77 -58.5 131 -58.5c48.667 0 88.167 17.167 118.5 51.5s45.5 89.5 45.5 165.5c0 142 -58 213 -174 213c-54 0 -96 -18.667 -126 -56s-45 -89.666 -45 -156.999zM172.998 589l80 111h52l80 -111h-49l-56 80h-2l-56 -80h-49z" />
    <glyph glyph-name="Gbreve" unicode="&#x11e;" horiz-adv-x="754" 
d="M60 350c0 101.333 33.502 186.998 100.502 256.998s149.833 105 248.5 105c97.333 0 178.666 -26.333 243.999 -79l-26 -33c-26 21.333 -59 38.5 -99 51.5s-79.667 19.5 -119 19.5c-87.333 0 -159.833 -30.667 -217.5 -92s-86.5 -137.666 -86.5 -228.999
s28.167 -167.666 84.5 -228.999s127.5 -92 213.5 -92c45.333 0 89.166 10.333 131.499 31s78.5 48.667 108.5 84v135h-125v40h168v-319h-43v61l1 30h-2c-27.333 -30.667 -62 -55.5 -104 -74.5s-87 -28.5 -135 -28.5c-97.333 0 -178.833 34.833 -244.5 104.5
s-98.5 155.5 -98.5 257.5zM398.002 746.998c-27.333 0 -51 8.50098 -71 25.501s-30 41.167 -30 72.5v16h40v-14c0 -20.667 5.66699 -36.167 17 -46.5s26 -15.5 44 -15.5c17.333 0 31.833 5.16699 43.5 15.5s17.5 26.166 17.5 47.499v13h40v-16
c0 -31.333 -10 -55.5 -30 -72.5s-43.667 -25.5 -71 -25.5z" />
    <glyph glyph-name="gbreve" unicode="&#x11f;" horiz-adv-x="571" 
d="M118 -134c43.333 -23.333 87.998 -34.999 133.998 -34.999c56.667 0 102.5 14.167 137.5 42.5s52.5 71.5 52.5 129.5v58l4 41h-2c-33.333 -68 -89.333 -102 -168 -102c-65.333 0 -118.666 23.667 -159.999 71s-62 109.666 -62 186.999c0 78 19.5 139.833 58.5 185.5
s91.167 68.5 156.5 68.5c38.667 0 73.834 -8.16699 105.501 -24.5s54.5 -40.833 68.5 -73.5h2c-2 4.66699 -3 11 -3 19v67h42v-497c0 -72 -21.833 -125.5 -65.5 -160.5s-98.167 -52.5 -163.5 -52.5c-54 0 -106.333 13 -157 39zM97.998 258.001
c0 -66.667 16.667 -119.501 50 -158.501s77 -58.5 131 -58.5c48.667 0 88.167 17.167 118.5 51.5s45.5 89.5 45.5 165.5c0 142 -58 213 -174 213c-54 0 -96 -18.667 -126 -56s-45 -89.666 -45 -156.999zM278.998 586c-27.333 0 -51 8.50098 -71 25.501s-30 41.167 -30 72.5
v16h40v-14c0 -20.667 5.66699 -36.167 17 -46.5s26 -15.5 44 -15.5c17.333 0 31.833 5.16699 43.5 15.5s17.5 26.166 17.5 47.499v13h40v-16c0 -31.333 -10 -55.5 -30 -72.5s-43.667 -25.5 -71 -25.5z" />
    <glyph glyph-name="Gdotaccent" unicode="&#x120;" horiz-adv-x="754" 
d="M60 350c0 101.333 33.502 186.998 100.502 256.998s149.833 105 248.5 105c97.333 0 178.666 -26.333 243.999 -79l-26 -33c-26 21.333 -59 38.5 -99 51.5s-79.667 19.5 -119 19.5c-87.333 0 -159.833 -30.667 -217.5 -92s-86.5 -137.666 -86.5 -228.999
s28.167 -167.666 84.5 -228.999s127.5 -92 213.5 -92c45.333 0 89.166 10.333 131.499 31s78.5 48.667 108.5 84v135h-125v40h168v-319h-43v61l1 30h-2c-27.333 -30.667 -62 -55.5 -104 -74.5s-87 -28.5 -135 -28.5c-97.333 0 -178.833 34.833 -244.5 104.5
s-98.5 155.5 -98.5 257.5zM375.002 787.998v73h46v-73h-46z" />
    <glyph glyph-name="gdotaccent" unicode="&#x121;" horiz-adv-x="571" 
d="M118 -134c43.333 -23.333 87.998 -34.999 133.998 -34.999c56.667 0 102.5 14.167 137.5 42.5s52.5 71.5 52.5 129.5v58l4 41h-2c-33.333 -68 -89.333 -102 -168 -102c-65.333 0 -118.666 23.667 -159.999 71s-62 109.666 -62 186.999c0 78 19.5 139.833 58.5 185.5
s91.167 68.5 156.5 68.5c38.667 0 73.834 -8.16699 105.501 -24.5s54.5 -40.833 68.5 -73.5h2c-2 4.66699 -3 11 -3 19v67h42v-497c0 -72 -21.833 -125.5 -65.5 -160.5s-98.167 -52.5 -163.5 -52.5c-54 0 -106.333 13 -157 39zM97.998 258.001
c0 -66.667 16.667 -119.501 50 -158.501s77 -58.5 131 -58.5c48.667 0 88.167 17.167 118.5 51.5s45.5 89.5 45.5 165.5c0 142 -58 213 -174 213c-54 0 -96 -18.667 -126 -56s-45 -89.666 -45 -156.999zM255.998 627v73h46v-73h-46z" />
    <glyph glyph-name="Gcommaaccent" unicode="&#x122;" horiz-adv-x="754" 
d="M60 350c0 101.333 33.502 186.998 100.502 256.998s149.833 105 248.5 105c97.333 0 178.666 -26.333 243.999 -79l-26 -33c-26 21.333 -59 38.5 -99 51.5s-79.667 19.5 -119 19.5c-87.333 0 -159.833 -30.667 -217.5 -92s-86.5 -137.666 -86.5 -228.999
s28.167 -167.666 84.5 -228.999s127.5 -92 213.5 -92c45.333 0 89.166 10.333 131.499 31s78.5 48.667 108.5 84v135h-125v40h168v-319h-43v61l1 30h-2c-27.333 -30.667 -62 -55.5 -104 -74.5s-87 -28.5 -135 -28.5c-97.333 0 -178.833 34.833 -244.5 104.5
s-98.5 155.5 -98.5 257.5zM379.002 -66.002h48c4 -17.333 6 -33 6 -47c0 -24.667 -7.33301 -53.667 -22 -87h-39c12 31.333 18 57.333 18 78c0 18 -3.66699 36.667 -11 56z" />
    <glyph glyph-name="gcommaaccent" unicode="&#x123;" horiz-adv-x="571" 
d="M118 -134c43.333 -23.333 87.998 -34.999 133.998 -34.999c56.667 0 102.5 14.167 137.5 42.5s52.5 71.5 52.5 129.5v58l4 41h-2c-33.333 -68 -89.333 -102 -168 -102c-65.333 0 -118.666 23.667 -159.999 71s-62 109.666 -62 186.999c0 78 19.5 139.833 58.5 185.5
s91.167 68.5 156.5 68.5c38.667 0 73.834 -8.16699 105.501 -24.5s54.5 -40.833 68.5 -73.5h2c-2 4.66699 -3 11 -3 19v67h42v-497c0 -72 -21.833 -125.5 -65.5 -160.5s-98.167 -52.5 -163.5 -52.5c-54 0 -106.333 13 -157 39zM97.998 258.001
c0 -66.667 16.667 -119.501 50 -158.501s77 -58.5 131 -58.5c48.667 0 88.167 17.167 118.5 51.5s45.5 89.5 45.5 165.5c0 142 -58 213 -174 213c-54 0 -96 -18.667 -126 -56s-45 -89.666 -45 -156.999zM304.998 566l-48 -0.000976562c-4 16.667 -6 32.334 -6 47.001
c0 24.667 7.33301 53.667 22 87h39c-12 -31.333 -18 -57.333 -18 -78c0 -18 3.66699 -36.667 11 -56z" />
    <glyph glyph-name="Hcircumflex" unicode="&#x124;" horiz-adv-x="744" 
d="M107 0v700h43v-329h444v329h43v-700h-43v331h-444v-331h-43zM266 750l80 111h52l80 -111h-49l-56 80h-2l-56 -80h-49z" />
    <glyph glyph-name="hcircumflex" unicode="&#x125;" horiz-adv-x="586" 
d="M87 0l0.00488281 700.001h42v-288l-4 -41h2c11.333 32 35.666 63.5 72.999 94.5s83.666 46.5 138.999 46.5c61.333 0 104.166 -16.5 128.499 -49.5s36.5 -81.5 36.5 -145.5v-317h-42v302c0 20 -0.666992 37.167 -2 51.5s-4.33301 29.333 -9 45s-11.334 28.5 -20.001 38.5
s-20.834 18.167 -36.501 24.5s-34.167 9.5 -55.5 9.5c-58 0 -107.5 -21.333 -148.5 -64s-61.5 -96.334 -61.5 -161.001v-246h-42zM3.00488 750.001l80 111h52l80 -111h-49l-56 80h-2l-56 -80h-49z" />
    <glyph glyph-name="Hbar" unicode="&#x126;" horiz-adv-x="756" 
d="M113 0v511h-65v40h65v149h43v-149h444v149h43v-149h65v-40h-65v-511h-43v331h-444v-331h-43zM156 371h444v140h-444v-140z" />
    <glyph glyph-name="hbar" unicode="&#x127;" horiz-adv-x="586" 
d="M87 0l0.00195312 568.999h-81v40h81v91h42v-91h133v-40h-133v-152l-2 -41h2c11.333 31.333 35.333 61.833 72 91.5s82.667 44.5 138 44.5c61.333 0 104.166 -16.5 128.499 -49.5s36.5 -81.5 36.5 -145.5v-317h-42v302c0 20 -0.666992 37.167 -2 51.5
s-4.33301 29.333 -9 45s-11.334 28.5 -20.001 38.5s-20.834 18.167 -36.501 24.5s-34.167 9.5 -55.5 9.5c-59.333 0 -109.166 -21.667 -149.499 -65s-60.5 -95.666 -60.5 -156.999v-249h-42z" />
    <glyph glyph-name="Itilde" unicode="&#x128;" horiz-adv-x="257" 
d="M107 0v700h43v-700h-43zM-15 753c0 72 27.667 108 83 108c15.333 0 29.166 -3.83301 41.499 -11.5s22 -16.167 29 -25.5s15.5 -17.833 25.5 -25.5s20 -11.5 30 -11.5c26.667 0 40 23.667 40 71h40c0 -72 -27.667 -108 -83 -108c-15.333 0 -29.166 3.83301 -41.499 11.5
s-22 16.167 -29 25.5s-15.5 17.833 -25.5 25.5s-20 11.5 -30 11.5c-26.667 0 -40 -23.667 -40 -71h-40z" />
    <glyph glyph-name="itilde" unicode="&#x129;" horiz-adv-x="216" 
d="M87 0v500h42v-500h-42zM-35 592c0 72 27.667 108 83 108c15.333 0 29.166 -3.83301 41.499 -11.5s22 -16.167 29 -25.5s15.5 -17.833 25.5 -25.5s20 -11.5 30 -11.5c26.667 0 40 23.667 40 71h40c0 -72 -27.667 -108 -83 -108c-15.333 0 -29.166 3.83301 -41.499 11.5
s-22 16.167 -29 25.5s-15.5 17.833 -25.5 25.5s-20 11.5 -30 11.5c-26.667 0 -40 -23.667 -40 -71h-40z" />
    <glyph glyph-name="Imacron" unicode="&#x12a;" horiz-adv-x="257" 
d="M107 0v700h43v-700h-43zM10 786v40h239v-40h-239z" />
    <glyph glyph-name="imacron" unicode="&#x12b;" horiz-adv-x="216" 
d="M87 0v500h42v-500h-42zM-11 625v40h239v-40h-239z" />
    <glyph glyph-name="Ibreve" unicode="&#x12c;" horiz-adv-x="257" 
d="M107 0v700h43v-700h-43zM129 747c-27.333 0 -51 8.50098 -71 25.501s-30 41.167 -30 72.5v16h40v-14c0 -20.667 5.66699 -36.167 17 -46.5s26 -15.5 44 -15.5c17.333 0 31.833 5.16699 43.5 15.5s17.5 26.166 17.5 47.499v13h40v-16c0 -31.333 -10 -55.5 -30 -72.5
s-43.667 -25.5 -71 -25.5z" />
    <glyph glyph-name="ibreve" unicode="&#x12d;" horiz-adv-x="216" 
d="M87 0v500h42v-500h-42zM109 586c-27.333 0 -51 8.50098 -71 25.501s-30 41.167 -30 72.5v16h40v-14c0 -20.667 5.66699 -36.167 17 -46.5s26 -15.5 44 -15.5c17.333 0 31.833 5.16699 43.5 15.5s17.5 26.166 17.5 47.499v13h40v-16c0 -31.333 -10 -55.5 -30 -72.5
s-43.667 -25.5 -71 -25.5z" />
    <glyph glyph-name="Iogonek" unicode="&#x12e;" horiz-adv-x="257" 
d="M25 -113c0 24 8.66797 46.8311 26.001 68.498s36 39.167 56 52.5v692h43v-700c-53.333 -39.333 -80 -75.666 -80 -108.999c0 -14.667 5.66699 -26.667 17 -36s22.666 -15 33.999 -17l17 -3l-9 -39c-2.66699 0 -6.33398 0.333008 -11.001 1s-13 2.83398 -25 6.50098
s-22.667 8.5 -32 14.5s-17.666 15 -24.999 27s-11 26 -11 42z" />
    <glyph glyph-name="iogonek" unicode="&#x12f;" horiz-adv-x="217" 
d="M5 -113c0 42 27.668 81.998 83.001 119.998v493h42v-500c-53.333 -39.333 -80 -75.666 -80 -108.999c0 -14.667 5.66699 -26.667 17 -36s22.666 -15 33.999 -17l17 -3l-9 -39c-2.66699 0 -6.33398 0.333008 -11.001 1s-13 2.83398 -25 6.50098s-22.667 8.5 -32 14.5
s-17.666 15 -24.999 27s-11 26 -11 42zM84.001 626.998v73h50v-73h-50z" />
    <glyph glyph-name="Idotaccent" unicode="&#x130;" horiz-adv-x="257" 
d="M107 0v700h43v-700h-43zM106 788v73h46v-73h-46z" />
    <glyph glyph-name="dotlessi" unicode="&#x131;" horiz-adv-x="216" 
d="M87 0v500h42v-500h-42z" />
    <glyph glyph-name="IJ" unicode="&#x132;" horiz-adv-x="556" 
d="M259 -5v41.998c15.333 0 29.5 1.16699 42.5 3.5s26.667 7.33301 41 15s26.5 17.834 36.5 30.501s18.167 30.334 24.5 53.001s9.5 49 9.5 79v482h43v-482c0 -148.667 -65.667 -223 -197 -223zM107 -0.00195312v700h43v-700h-43z" />
    <glyph glyph-name="ij" unicode="&#x133;" horiz-adv-x="432" 
d="M83 627v73h50v-73h-50zM87 0v500h42v-500h-42zM299 627v73h50v-73h-50zM303 -21l-0.00390625 521.002h42v-520c0 -38.667 -5.66699 -71.334 -17 -98.001s-26.166 -45.834 -44.499 -57.501s-35.166 -19.5 -50.499 -23.5s-31 -6 -47 -6c-4.66699 0 -13 0.666992 -25 2v39
c4 -1.33301 11.333 -2 22 -2c12.667 0 24.834 1.66699 36.501 5s24.334 9.5 38.001 18.5s24.667 24 33 45s12.5 46.5 12.5 76.5z" />
    <glyph glyph-name="Jcircumflex" unicode="&#x134;" horiz-adv-x="509" 
d="M35 191v22h43v-23c0 -46 12.167 -84.333 36.5 -115s59.833 -46 106.5 -46c40.667 0 75 12.833 103 38.5s42 66.5 42 122.5v470h-167v40h210v-509c0 -69.333 -18.167 -120.5 -54.5 -153.5s-80.5 -49.5 -132.5 -49.5s-96.167 16.5 -132.5 49.5s-54.5 84.167 -54.5 153.5z
M198 750l80 111h52l80 -111h-49l-56 80h-2l-56 -80h-49z" />
    <glyph glyph-name="jcircumflex" unicode="&#x135;" horiz-adv-x="216" 
d="M-2 589l80 111h52l80 -111h-49l-56 80h-2l-56 -80h-49zM87 -21l-0.00292969 521.002h42v-520c0 -38.667 -5.66699 -71.334 -17 -98.001s-26.166 -45.834 -44.499 -57.501s-35.166 -19.5 -50.499 -23.5s-31 -6 -47 -6c-10.667 0 -19 0.666992 -25 2v39
c9.33301 -1.33301 16.666 -2 21.999 -2c12.667 0 24.834 1.66699 36.501 5s24.334 9.5 38.001 18.5s24.667 24 33 45s12.5 46.5 12.5 76.5z" />
    <glyph glyph-name="Kcommaaccent" unicode="&#x136;" horiz-adv-x="570" 
d="M107 0v700h43v-312h130l200 312h52l-215 -330v-2l229 -368h-52l-214 348h-130v-348h-43zM276 -66h48c4 -17.333 6 -33 6 -47c0 -24.667 -7.33301 -53.667 -22 -87h-39c12 31.333 18 57.333 18 78c0 18 -3.66699 36.667 -11 56z" />
    <glyph glyph-name="kcommaaccent" unicode="&#x137;" horiz-adv-x="473" 
d="M87 0v700h42v-397h89l162 197h55l-181 -215v-2l198 -283h-53l-181 264h-89v-264h-42zM225 -66h48c4 -17.333 6 -33 6 -47c0 -24.667 -7.33301 -53.667 -22 -87h-39c12 31.333 18 57.333 18 78c0 18 -3.66699 36.667 -11 56z" />
    <glyph glyph-name="kgreenlandic" unicode="&#x138;" horiz-adv-x="471" 
d="M87 0v500h42v-213h86l173 213h57l-191 -230v-2l188 -268h-55l-172 250h-86v-250h-42z" />
    <glyph glyph-name="Lacute" unicode="&#x139;" horiz-adv-x="508" 
d="M107 0v700h43v-660h334v-40h-377zM106 750l67 111h56l-79 -111h-44z" />
    <glyph glyph-name="lacute" unicode="&#x13a;" horiz-adv-x="227" 
d="M87 101l-0.000976562 599h42v-586c0 -52 19.667 -78 59 -78c6 0 11 0.333008 15 1v-39c-5.33301 -1.33301 -11.333 -2 -18 -2c-9.33301 0 -18.666 1.16699 -27.999 3.5s-19.833 6.83301 -31.5 13.5s-21 17.5 -28 32.5s-10.5 33.5 -10.5 55.5zM86.999 750l67 111h56
l-79 -111h-44z" />
    <glyph glyph-name="Lcommaaccent" unicode="&#x13b;" horiz-adv-x="508" 
d="M107 0v700h43v-660h334v-40h-377zM278 -66h48c4 -17.333 6 -33 6 -47c0 -24.667 -7.33301 -53.667 -22 -87h-39c12 31.333 18 57.333 18 78c0 18 -3.66699 36.667 -11 56z" />
    <glyph glyph-name="lcommaaccent" unicode="&#x13c;" horiz-adv-x="227" 
d="M87 101l-0.000976562 599h42v-586c0 -52 19.667 -78 59 -78c6 0 11 0.333008 15 1v-39c-5.33301 -1.33301 -11.333 -2 -18 -2c-9.33301 0 -18.666 1.16699 -27.999 3.5s-19.833 6.83301 -31.5 13.5s-21 17.5 -28 32.5s-10.5 33.5 -10.5 55.5zM115.999 -66h48
c4 -17.333 6 -33 6 -47c0 -24.667 -7.33301 -53.667 -22 -87h-39c12 31.333 18 57.333 18 78c0 18 -3.66699 36.667 -11 56z" />
    <glyph glyph-name="Lcaron" unicode="&#x13d;" horiz-adv-x="508" 
d="M107 0v700h43v-660h334v-40h-377zM247 700h48c4 -17.333 6 -33 6 -47c0 -24.667 -7.33301 -53.667 -22 -87h-39c12 31.333 18 57.333 18 78c0 18 -3.66699 36.667 -11 56z" />
    <glyph glyph-name="lcaron" unicode="&#x13e;" horiz-adv-x="227" 
d="M87 101l-0.000976562 599h42v-586c0 -52 19.667 -78 59 -78c6 0 11 0.333008 15 1v-39c-5.33301 -1.33301 -11.333 -2 -18 -2c-9.33301 0 -18.666 1.16699 -27.999 3.5s-19.833 6.83301 -31.5 13.5s-21 17.5 -28 32.5s-10.5 33.5 -10.5 55.5zM196.999 700h48
c4 -17.333 6 -33 6 -47c0 -24.667 -7.33301 -53.667 -22 -87h-39c12 31.333 18 57.333 18 78c0 18 -3.66699 36.667 -11 56z" />
    <glyph glyph-name="Ldot" unicode="&#x13f;" horiz-adv-x="508" 
d="M107 0v700h43v-660h334v-40h-377zM283 334v63h61v-63h-61z" />
    <glyph glyph-name="ldot" unicode="&#x140;" horiz-adv-x="233" 
d="M87 101l-0.000976562 599h42v-586c0 -52 19.667 -78 59 -78c6 0 11 0.333008 15 1v-39c-5.33301 -1.33301 -11.333 -2 -18 -2c-9.33301 0 -18.666 1.16699 -27.999 3.5s-19.833 6.83301 -31.5 13.5s-21 17.5 -28 32.5s-10.5 33.5 -10.5 55.5zM193.999 334v63h61v-63h-61z
" />
    <glyph glyph-name="Lslash" unicode="&#x141;" horiz-adv-x="514" 
d="M113 0v370l-65 -37v47l65 37v283h43v-258l115 67v-48l-115 -66v-355h334v-40h-377z" />
    <glyph glyph-name="lslash" unicode="&#x142;" horiz-adv-x="251" 
d="M15 333l-0.000976562 47l89 51v269h42v-244l92 53v-48l-92 -53v-294c0 -52 19.667 -78 59 -78l15 1v-39c-6 -1.33301 -12 -2 -18 -2c-9.33301 0 -18.666 1.16699 -27.999 3.5s-19.833 6.83301 -31.5 13.5s-21 17.5 -28 32.5s-10.5 33.5 -10.5 55.5v283z" />
    <glyph glyph-name="Nacute" unicode="&#x143;" horiz-adv-x="750" 
d="M107 0v700h40l399 -549l57 -88h2c-3.33301 35.333 -5 64.666 -5 87.999v549h43v-700h-40l-399 549l-57 88h-2c3.33301 -35.333 5 -64.666 5 -87.999v-549h-43zM352 750l67 111h56l-79 -111h-44z" />
    <glyph glyph-name="nacute" unicode="&#x144;" horiz-adv-x="586" 
d="M87 0l0.00488281 499.999h42v-88l-4 -41h2c11.333 32 35.666 63.5 72.999 94.5s83.666 46.5 138.999 46.5c61.333 0 104.166 -16.5 128.499 -49.5s36.5 -81.5 36.5 -145.5v-317h-42v302c0 20 -0.666992 37.167 -2 51.5s-4.33301 29.333 -9 45s-11.334 28.5 -20.001 38.5
s-20.834 18.167 -36.501 24.5s-34.167 9.5 -55.5 9.5c-58 0 -107.5 -21.167 -148.5 -63.5s-61.5 -95.166 -61.5 -158.499v-249h-42zM284.005 588.999l67 111h56l-79 -111h-44z" />
    <glyph glyph-name="Ncommaaccent" unicode="&#x145;" horiz-adv-x="750" 
d="M107 0v700h40l399 -549l57 -88h2c-3.33301 35.333 -5 64.666 -5 87.999v549h43v-700h-40l-399 549l-57 88h-2c3.33301 -35.333 5 -64.666 5 -87.999v-549h-43zM350 -66h48c4 -17.333 6 -33 6 -47c0 -24.667 -7.33301 -53.667 -22 -87h-39c12 31.333 18 57.333 18 78
c0 18 -3.66699 36.667 -11 56z" />
    <glyph glyph-name="ncommaaccent" unicode="&#x146;" horiz-adv-x="586" 
d="M87 0l0.00488281 499.999h42v-88l-4 -41h2c11.333 32 35.666 63.5 72.999 94.5s83.666 46.5 138.999 46.5c61.333 0 104.166 -16.5 128.499 -49.5s36.5 -81.5 36.5 -145.5v-317h-42v302c0 20 -0.666992 37.167 -2 51.5s-4.33301 29.333 -9 45s-11.334 28.5 -20.001 38.5
s-20.834 18.167 -36.501 24.5s-34.167 9.5 -55.5 9.5c-58 0 -107.5 -21.167 -148.5 -63.5s-61.5 -95.166 -61.5 -158.499v-249h-42zM271.005 -66.001h48c4 -17.333 6 -33 6 -47c0 -24.667 -7.33301 -53.667 -22 -87h-39c12 31.333 18 57.333 18 78
c0 18 -3.66699 36.667 -11 56z" />
    <glyph glyph-name="Ncaron" unicode="&#x147;" horiz-adv-x="750" 
d="M107 0v700h40l399 -549l57 -88h2c-3.33301 35.333 -5 64.666 -5 87.999v549h43v-700h-40l-399 549l-57 88h-2c3.33301 -35.333 5 -64.666 5 -87.999v-549h-43zM349 750l-80 111h49l56 -80h2l56 80h49l-80 -111h-52z" />
    <glyph glyph-name="ncaron" unicode="&#x148;" horiz-adv-x="586" 
d="M87 0l0.00488281 499.999h42v-88l-4 -41h2c11.333 32 35.666 63.5 72.999 94.5s83.666 46.5 138.999 46.5c61.333 0 104.166 -16.5 128.499 -49.5s36.5 -81.5 36.5 -145.5v-317h-42v302c0 20 -0.666992 37.167 -2 51.5s-4.33301 29.333 -9 45s-11.334 28.5 -20.001 38.5
s-20.834 18.167 -36.501 24.5s-34.167 9.5 -55.5 9.5c-58 0 -107.5 -21.167 -148.5 -63.5s-61.5 -95.166 -61.5 -158.499v-249h-42zM281.005 588.999l-80 111h49l56 -80h2l56 80h49l-80 -111h-52z" />
    <glyph glyph-name="napostrophe" unicode="&#x149;" horiz-adv-x="586" 
d="M87 0l0.00488281 499.999h42v-88l-4 -41h2c11.333 32 35.666 63.5 72.999 94.5s83.666 46.5 138.999 46.5c61.333 0 104.166 -16.5 128.499 -49.5s36.5 -81.5 36.5 -145.5v-317h-42v302c0 20 -0.666992 37.167 -2 51.5s-4.33301 29.333 -9 45s-11.334 28.5 -20.001 38.5
s-20.834 18.167 -36.501 24.5s-34.167 9.5 -55.5 9.5c-58 0 -107.5 -21.167 -148.5 -63.5s-61.5 -95.166 -61.5 -158.499v-249h-42zM31.0049 699.999h48c4 -17.333 6 -33 6 -47c0 -24.667 -7.33301 -53.667 -22 -87h-39c12 31.333 18 57.333 18 78
c0 18 -3.66699 36.667 -11 56z" />
    <glyph glyph-name="Eng" unicode="&#x14a;" horiz-adv-x="750" 
d="M107 0v700h40l399 -549l57 -88h2c-3.33301 35.333 -5 64.666 -5 87.999v549h43v-702c0 -69.333 -18.167 -120.5 -54.5 -153.5s-80.5 -49.5 -132.5 -49.5v42c40 0 74 13.167 102 39.5s42 68.833 42 127.5l-396 545l-57 88h-2c3.33301 -35.333 5 -64.666 5 -87.999v-549
h-43z" />
    <glyph glyph-name="eng" unicode="&#x14b;" horiz-adv-x="586" 
d="M87 0l-0.00195312 500.001h42v-83l-2 -41h2c11.333 31.333 35.333 61.833 72 91.5s82.667 44.5 138 44.5c61.333 0 104.166 -16.5 128.499 -49.5s36.5 -81.5 36.5 -145.5v-342c0 -38.667 -5.66699 -71.334 -17 -98.001s-26.166 -45.834 -44.499 -57.501
s-35.166 -19.5 -50.499 -23.5s-31 -6 -47 -6l-25 2v39c6 -1.33301 13.333 -2 22 -2c12.667 0 24.834 1.66699 36.501 5s24.334 9.5 38.001 18.5s24.667 24 33 45s12.5 46.5 12.5 76.5v328c0 20 -0.666992 37.167 -2 51.5s-4.33301 29.333 -9 45s-11.334 28.5 -20.001 38.5
s-20.834 18.167 -36.501 24.5s-34.167 9.5 -55.5 9.5c-59.333 0 -109.166 -21.667 -149.499 -65s-60.5 -95.666 -60.5 -156.999v-249h-42z" />
    <glyph glyph-name="Omacron" unicode="&#x14c;" horiz-adv-x="826" 
d="M59 355c0 100.667 34 185.334 102 254.001s152 103 252 103s184 -34.333 252 -103s102 -153.334 102 -254.001c0 -103.333 -34 -190.333 -102 -261s-152 -106 -252 -106s-184 35.333 -252 106s-102 157.667 -102 261zM104 355c0 -92 29.5 -169.333 88.5 -232
s132.5 -94 220.5 -94s161.5 31.333 220.5 94s88.5 140 88.5 232c0 90 -29.5 165.167 -88.5 225.5s-132.5 90.5 -220.5 90.5s-161.5 -30.167 -220.5 -90.5s-88.5 -135.5 -88.5 -225.5zM294 786v40h239v-40h-239z" />
    <glyph glyph-name="omacron" unicode="&#x14d;" horiz-adv-x="620" 
d="M51 253c0 72.667 25.167 134 75.5 184s111.5 75 183.5 75s133.167 -25 183.5 -75s75.5 -111.333 75.5 -184c0 -74 -25.167 -136.667 -75.5 -188s-111.5 -77 -183.5 -77s-133.167 25.667 -183.5 77s-75.5 114 -75.5 188zM95 253c0 -63.333 20.833 -116.5 62.5 -159.5
s92.5 -64.5 152.5 -64.5s110.833 21.5 152.5 64.5s62.5 96.167 62.5 159.5c0 61.333 -20.833 113 -62.5 155s-92.5 63 -152.5 63s-110.833 -21 -152.5 -63s-62.5 -93.667 -62.5 -155zM191 625v40h239v-40h-239z" />
    <glyph glyph-name="Obreve" unicode="&#x14e;" horiz-adv-x="826" 
d="M59 355c0 100.667 34 185.334 102 254.001s152 103 252 103s184 -34.333 252 -103s102 -153.334 102 -254.001c0 -103.333 -34 -190.333 -102 -261s-152 -106 -252 -106s-184 35.333 -252 106s-102 157.667 -102 261zM104 355c0 -92 29.5 -169.333 88.5 -232
s132.5 -94 220.5 -94s161.5 31.333 220.5 94s88.5 140 88.5 232c0 90 -29.5 165.167 -88.5 225.5s-132.5 90.5 -220.5 90.5s-161.5 -30.167 -220.5 -90.5s-88.5 -135.5 -88.5 -225.5zM413 747c-27.333 0 -51 8.50098 -71 25.501s-30 41.167 -30 72.5v16h40v-14
c0 -20.667 5.66699 -36.167 17 -46.5s26 -15.5 44 -15.5c17.333 0 31.833 5.16699 43.5 15.5s17.5 26.166 17.5 47.499v13h40v-16c0 -31.333 -10 -55.5 -30 -72.5s-43.667 -25.5 -71 -25.5z" />
    <glyph glyph-name="obreve" unicode="&#x14f;" horiz-adv-x="620" 
d="M51 253c0 72.667 25.167 134 75.5 184s111.5 75 183.5 75s133.167 -25 183.5 -75s75.5 -111.333 75.5 -184c0 -74 -25.167 -136.667 -75.5 -188s-111.5 -77 -183.5 -77s-133.167 25.667 -183.5 77s-75.5 114 -75.5 188zM95 253c0 -63.333 20.833 -116.5 62.5 -159.5
s92.5 -64.5 152.5 -64.5s110.833 21.5 152.5 64.5s62.5 96.167 62.5 159.5c0 61.333 -20.833 113 -62.5 155s-92.5 63 -152.5 63s-110.833 -21 -152.5 -63s-62.5 -93.667 -62.5 -155zM310 586c-27.333 0 -51 8.50098 -71 25.501s-30 41.167 -30 72.5v16h40v-14
c0 -20.667 5.66699 -36.167 17 -46.5s26 -15.5 44 -15.5c17.333 0 31.833 5.16699 43.5 15.5s17.5 26.166 17.5 47.499v13h40v-16c0 -31.333 -10 -55.5 -30 -72.5s-43.667 -25.5 -71 -25.5z" />
    <glyph glyph-name="Ohungarumlaut" unicode="&#x150;" horiz-adv-x="826" 
d="M59 355c0 100.667 34 185.334 102 254.001s152 103 252 103s184 -34.333 252 -103s102 -153.334 102 -254.001c0 -103.333 -34 -190.333 -102 -261s-152 -106 -252 -106s-184 35.333 -252 106s-102 157.667 -102 261zM104 355c0 -92 29.5 -169.333 88.5 -232
s132.5 -94 220.5 -94s161.5 31.333 220.5 94s88.5 140 88.5 232c0 90 -29.5 165.167 -88.5 225.5s-132.5 90.5 -220.5 90.5s-161.5 -30.167 -220.5 -90.5s-88.5 -135.5 -88.5 -225.5zM433 750l67 111h56l-79 -111h-44zM318 750l62 111h50l-65 -111h-47z" />
    <glyph glyph-name="ohungarumlaut" unicode="&#x151;" horiz-adv-x="620" 
d="M51 253c0 72.667 25.167 134 75.5 184s111.5 75 183.5 75s133.167 -25 183.5 -75s75.5 -111.333 75.5 -184c0 -74 -25.167 -136.667 -75.5 -188s-111.5 -77 -183.5 -77s-133.167 25.667 -183.5 77s-75.5 114 -75.5 188zM95 253c0 -63.333 20.833 -116.5 62.5 -159.5
s92.5 -64.5 152.5 -64.5s110.833 21.5 152.5 64.5s62.5 96.167 62.5 159.5c0 61.333 -20.833 113 -62.5 155s-92.5 63 -152.5 63s-110.833 -21 -152.5 -63s-62.5 -93.667 -62.5 -155zM330 589l67 111h56l-79 -111h-44zM215 589l62 111h50l-65 -111h-47z" />
    <glyph glyph-name="OE" unicode="&#x152;" horiz-adv-x="931" 
d="M60 350c0 102 33.001 187.499 99.001 256.499s150.333 103.5 253 103.5c12 0 32 -1.66699 60 -5s46.667 -5 56 -5h337v-40h-340v-287h279v-40h-279v-293h359v-40h-355c-8.66699 0 -27.334 -1.66699 -56.001 -5s-49 -5 -61 -5c-102.667 0 -187 34.333 -253 103
s-99 154.334 -99 257.001zM105.001 349.999c0 -92 28.332 -168.166 84.999 -228.499s130.667 -90.5 222 -90.5c10.667 0 21.834 0.666992 33.501 2s20.5 2.66602 26.5 3.99902l10 2v622c-22 5.33301 -45.333 8 -70 8c-91.333 0 -165.333 -30.333 -222 -91
s-85 -136.667 -85 -228z" />
    <glyph glyph-name="oe" unicode="&#x153;" horiz-adv-x="1022" 
d="M52 249c0 77.333 25.167 140.501 75.5 189.501s111.166 73.5 182.499 73.5c51.333 0 98 -13.333 140 -40s73.333 -63 94 -109h2c19.333 47.333 48.833 84 88.5 110s84.167 39 133.5 39c64.667 0 114.834 -21.833 150.501 -65.5s53.5 -97.834 53.5 -162.501l-2 -27h-401
c2 -72 23.333 -128 64 -168s90.667 -60 150 -60s111 21 155 63l23 -35c-22 -21.333 -49 -38.166 -81 -50.499s-64.333 -18.5 -97 -18.5c-52.667 0 -100.167 13.333 -142.5 40s-73.5 63.334 -93.5 110.001h-2c-20.667 -46.667 -52 -83.334 -94 -110.001s-89 -40 -141 -40
c-72 0 -133 24.167 -183 72.5s-75 111.166 -75 188.499zM572 296.001h356c-2.66699 58 -19 102 -49 132s-67.333 45 -112 45c-48.667 0 -91.167 -15.5 -127.5 -46.5s-58.833 -74.5 -67.5 -130.5zM96 249.001c0 -65.333 20.667 -118.333 62 -159s92 -61 152 -61
s110.833 20.667 152.5 62s62.5 95.666 62.5 162.999c0 64 -21 116.167 -63 156.5s-92.667 60.5 -152 60.5c-60 0 -110.667 -20.667 -152 -62s-62 -94.666 -62 -159.999z" />
    <glyph glyph-name="Racute" unicode="&#x154;" horiz-adv-x="607" 
d="M107 0v699.999h205c56 0 98 -7 126 -21c30 -14.667 53.667 -36.667 71 -66s26 -63.333 26 -102c0 -49.333 -13 -91.5 -39 -126.5s-59.667 -57.167 -101 -66.5v-2c4.66699 -5.33301 10 -13.666 16 -24.999l157 -291h-51l-166 310h-201v-310h-43zM150 349.999h190.002
c45.333 0 81.666 14.833 108.999 44.5s41 68.5 41 116.5c0 30.667 -7.33301 58 -22 82s-34.667 41.667 -60 53c-20.667 9.33301 -53.334 14 -98.001 14h-160v-310zM274.002 749.999l67 111h56l-79 -111h-44z" />
    <glyph glyph-name="racute" unicode="&#x155;" horiz-adv-x="340" 
d="M87 0v500h42v-95l-4 -41h2c13.333 40.667 34 74.167 62 100.5s60.667 39.5 98 39.5c10 0 19.667 -1 29 -3v-42c-4 1.33301 -11.667 2 -23 2c-36.667 0 -68 -13.667 -94 -41s-44.167 -58.833 -54.5 -94.5s-15.5 -72.167 -15.5 -109.5v-216h-42zM182 589l67 111h56
l-79 -111h-44z" />
    <glyph glyph-name="Rcommaaccent" unicode="&#x156;" horiz-adv-x="607" 
d="M107 0v699.999h205c56 0 98 -7 126 -21c30 -14.667 53.667 -36.667 71 -66s26 -63.333 26 -102c0 -49.333 -13 -91.5 -39 -126.5s-59.667 -57.167 -101 -66.5v-2c4.66699 -5.33301 10 -13.666 16 -24.999l157 -291h-51l-166 310h-201v-310h-43zM150 349.999h190.002
c45.333 0 81.666 14.833 108.999 44.5s41 68.5 41 116.5c0 30.667 -7.33301 58 -22 82s-34.667 41.667 -60 53c-20.667 9.33301 -53.334 14 -98.001 14h-160v-310zM292.002 -66.001h48c4 -17.333 6 -33 6 -47c0 -24.667 -7.33301 -53.667 -22 -87h-39
c12 31.333 18 57.333 18 78c0 18 -3.66699 36.667 -11 56z" />
    <glyph glyph-name="rcommaaccent" unicode="&#x157;" horiz-adv-x="340" 
d="M87 0v500h42v-95l-4 -41h2c13.333 40.667 34 74.167 62 100.5s60.667 39.5 98 39.5c10 0 19.667 -1 29 -3v-42c-4 1.33301 -11.667 2 -23 2c-36.667 0 -68 -13.667 -94 -41s-44.167 -58.833 -54.5 -94.5s-15.5 -72.167 -15.5 -109.5v-216h-42zM85 -66h48
c4 -17.333 6 -33 6 -47c0 -24.667 -7.33301 -53.667 -22 -87h-39c12 31.333 18 57.333 18 78c0 18 -3.66699 36.667 -11 56z" />
    <glyph glyph-name="Rcaron" unicode="&#x158;" horiz-adv-x="607" 
d="M107 0v699.999h205c56 0 98 -7 126 -21c30 -14.667 53.667 -36.667 71 -66s26 -63.333 26 -102c0 -49.333 -13 -91.5 -39 -126.5s-59.667 -57.167 -101 -66.5v-2c4.66699 -5.33301 10 -13.666 16 -24.999l157 -291h-51l-166 310h-201v-310h-43zM150 349.999h190.002
c45.333 0 81.666 14.833 108.999 44.5s41 68.5 41 116.5c0 30.667 -7.33301 58 -22 82s-34.667 41.667 -60 53c-20.667 9.33301 -53.334 14 -98.001 14h-160v-310zM271.002 749.999l-80 111h49l56 -80h2l56 80h49l-80 -111h-52z" />
    <glyph glyph-name="rcaron" unicode="&#x159;" horiz-adv-x="340" 
d="M87 0v500h42v-95l-4 -41h2c13.333 40.667 34 74.167 62 100.5s60.667 39.5 98 39.5c10 0 19.667 -1 29 -3v-42c-4 1.33301 -11.667 2 -23 2c-36.667 0 -68 -13.667 -94 -41s-44.167 -58.833 -54.5 -94.5s-15.5 -72.167 -15.5 -109.5v-216h-42zM179 589l-80 111h49l56 -80
h2l56 80h49l-80 -111h-52z" />
    <glyph glyph-name="Sacute" unicode="&#x15a;" horiz-adv-x="524" 
d="M52 75l28.999 33c52 -52 113.333 -78 184 -78c46.667 0 84.834 12.667 114.501 38s44.5 58.666 44.5 99.999c0 36 -12.333 66.5 -37 91.5s-54.5 45 -89.5 60l-105 46c-35 15.667 -64.833 37.334 -89.5 65.001s-37 61.5 -37 101.5c0 54 20.167 97.5 60.5 130.5
s90.5 49.5 150.5 49.5c72.667 0 131.667 -21.667 177 -65l-24 -37c-18.667 18.667 -42.167 33.334 -70.5 44.001s-56.5 16 -84.5 16c-45.333 0 -84 -12.333 -116 -37s-48 -57.334 -48 -98.001c0 -34 12.333 -62.833 37 -86.5s54.5 -42.667 89.5 -57s70 -29.5 105 -45.5
s64.833 -38.333 89.5 -67s37 -64 37 -106c0 -54 -18.5 -98.333 -55.5 -133s-86.833 -52 -149.5 -52c-83.333 0 -154 29 -212 87zM240.999 750l67 111h56l-79 -111h-44z" />
    <glyph glyph-name="sacute" unicode="&#x15b;" horiz-adv-x="430" 
d="M41 60l27.001 31.999c40 -42 91.667 -63 155 -63c32.667 0 60 8.33301 82 25s33 39.667 33 69c0 23.333 -9.5 43 -28.5 59s-42 29 -69 39s-53.833 20.667 -80.5 32s-49.5 27.333 -68.5 48s-28.5 46 -28.5 76c0 42.667 15.333 75.834 46 99.501s68.667 35.5 114 35.5
c63.333 0 112.666 -18 147.999 -54l-25 -34c-29.333 31.333 -71.333 47 -126 47c-31.333 0 -58 -7.5 -80 -22.5s-33 -37.833 -33 -68.5c0 -24 9.5 -44 28.5 -60s42 -29.167 69 -39.5l80.5 -32c26.667 -11 49.5 -27 68.5 -48s28.5 -46.833 28.5 -77.5
c0 -40 -15 -72.5 -45 -97.5s-68.333 -37.5 -115 -37.5c-76.667 0 -137 24 -181 72zM197.001 588.999l67 111h56l-79 -111h-44z" />
    <glyph glyph-name="Scircumflex" unicode="&#x15c;" horiz-adv-x="524" 
d="M52 75l28.999 33c52 -52 113.333 -78 184 -78c46.667 0 84.834 12.667 114.501 38s44.5 58.666 44.5 99.999c0 36 -12.333 66.5 -37 91.5s-54.5 45 -89.5 60l-105 46c-35 15.667 -64.833 37.334 -89.5 65.001s-37 61.5 -37 101.5c0 54 20.167 97.5 60.5 130.5
s90.5 49.5 150.5 49.5c72.667 0 131.667 -21.667 177 -65l-24 -37c-18.667 18.667 -42.167 33.334 -70.5 44.001s-56.5 16 -84.5 16c-45.333 0 -84 -12.333 -116 -37s-48 -57.334 -48 -98.001c0 -34 12.333 -62.833 37 -86.5s54.5 -42.667 89.5 -57s70 -29.5 105 -45.5
s64.833 -38.333 89.5 -67s37 -64 37 -106c0 -54 -18.5 -98.333 -55.5 -133s-86.833 -52 -149.5 -52c-83.333 0 -154 29 -212 87zM158.999 750l80 111h52l80 -111h-49l-56 80h-2l-56 -80h-49z" />
    <glyph glyph-name="scircumflex" unicode="&#x15d;" horiz-adv-x="430" 
d="M41 60l27.001 31.999c40 -42 91.667 -63 155 -63c32.667 0 60 8.33301 82 25s33 39.667 33 69c0 23.333 -9.5 43 -28.5 59s-42 29 -69 39s-53.833 20.667 -80.5 32s-49.5 27.333 -68.5 48s-28.5 46 -28.5 76c0 42.667 15.333 75.834 46 99.501s68.667 35.5 114 35.5
c63.333 0 112.666 -18 147.999 -54l-25 -34c-29.333 31.333 -71.333 47 -126 47c-31.333 0 -58 -7.5 -80 -22.5s-33 -37.833 -33 -68.5c0 -24 9.5 -44 28.5 -60s42 -29.167 69 -39.5l80.5 -32c26.667 -11 49.5 -27 68.5 -48s28.5 -46.833 28.5 -77.5
c0 -40 -15 -72.5 -45 -97.5s-68.333 -37.5 -115 -37.5c-76.667 0 -137 24 -181 72zM115.001 588.999l80 111h52l80 -111h-49l-56 80h-2l-56 -80h-49z" />
    <glyph glyph-name="Scedilla" unicode="&#x15e;" horiz-adv-x="525" 
d="M228 -93l16.999 81.999c-76.667 4 -141 32.667 -193 86l29 33c52 -52 113.333 -78 184 -78c46.667 0 84.834 12.667 114.501 38s44.5 58.666 44.5 99.999c0 36 -12.333 66.5 -37 91.5s-54.5 45 -89.5 60l-105 46c-35 15.667 -64.833 37.334 -89.5 65.001
s-37 61.5 -37 101.5c0 54 20.167 97.5 60.5 130.5s90.5 49.5 150.5 49.5c72.667 0 131.667 -21.667 177 -65l-24 -37c-18.667 18.667 -42.167 33.334 -70.5 44.001s-56.5 16 -84.5 16c-45.333 0 -84 -12.333 -116 -37s-48 -57.334 -48 -98.001
c0 -34 12.333 -62.833 37 -86.5s54.5 -42.667 89.5 -57s70 -29.5 105 -45.5s64.833 -38.333 89.5 -67s37 -64 37 -106c0 -51.333 -16.833 -94.166 -50.5 -128.499s-79.5 -52.833 -137.5 -55.5l-9 -49c20.667 -3.33301 37.334 -11 50.001 -23s19 -27 19 -45
c0 -26 -8.66699 -45.167 -26 -57.5s-39 -18.5 -65 -18.5c-16.667 0 -31.334 1.33301 -44.001 4v38c11.333 -3.33301 25 -5 41 -5c36 0 54 12.333 54 37c0 25.333 -20.333 38 -61 38z" />
    <glyph glyph-name="scedilla" unicode="&#x15f;" horiz-adv-x="432" 
d="M183 -93l17.002 82c-68 6 -120.667 29.667 -158 71l27 32c40 -42 91.667 -63 155 -63c32.667 0 60 8.33301 82 25s33 39.667 33 69c0 23.333 -9.5 43 -28.5 59s-41.833 29 -68.5 39s-53.5 20.667 -80.5 32s-50 27.333 -69 48s-28.5 46 -28.5 76
c0 42.667 15.333 75.834 46 99.501s68.667 35.5 114 35.5c63.333 0 112.666 -18 147.999 -54l-25 -34c-29.333 31.333 -71.333 47 -126 47c-31.333 0 -58 -7.5 -80 -22.5s-33 -37.833 -33 -68.5c0 -24 9.5 -44 28.5 -60s42 -29.167 69 -39.5l80.5 -32
c26.667 -11 49.5 -27 68.5 -48s28.5 -46.833 28.5 -77.5c0 -37.333 -13.833 -68.333 -41.5 -93s-62.834 -38.334 -105.501 -41.001l-9 -49c20.667 -3.33301 37.334 -11 50.001 -23s19 -27 19 -45c0 -26 -8.66699 -45.167 -26 -57.5s-39 -18.5 -65 -18.5
c-16.667 0 -31.334 1.33301 -44.001 4v38c11.333 -3.33301 25 -5 41 -5c36 0 54 12.333 54 37c0 25.333 -20.333 38 -61 38z" />
    <glyph glyph-name="Scaron" unicode="&#x160;" horiz-adv-x="524" 
d="M52 75l28.999 33c52 -52 113.333 -78 184 -78c46.667 0 84.834 12.667 114.501 38s44.5 58.666 44.5 99.999c0 36 -12.333 66.5 -37 91.5s-54.5 45 -89.5 60l-105 46c-35 15.667 -64.833 37.334 -89.5 65.001s-37 61.5 -37 101.5c0 54 20.167 97.5 60.5 130.5
s90.5 49.5 150.5 49.5c72.667 0 131.667 -21.667 177 -65l-24 -37c-18.667 18.667 -42.167 33.334 -70.5 44.001s-56.5 16 -84.5 16c-45.333 0 -84 -12.333 -116 -37s-48 -57.334 -48 -98.001c0 -34 12.333 -62.833 37 -86.5s54.5 -42.667 89.5 -57s70 -29.5 105 -45.5
s64.833 -38.333 89.5 -67s37 -64 37 -106c0 -54 -18.5 -98.333 -55.5 -133s-86.833 -52 -149.5 -52c-83.333 0 -154 29 -212 87zM238.999 750l-80 111h49l56 -80h2l56 80h49l-80 -111h-52z" />
    <glyph glyph-name="scaron" unicode="&#x161;" horiz-adv-x="430" 
d="M41 60l27.001 31.999c40 -42 91.667 -63 155 -63c32.667 0 60 8.33301 82 25s33 39.667 33 69c0 23.333 -9.5 43 -28.5 59s-42 29 -69 39s-53.833 20.667 -80.5 32s-49.5 27.333 -68.5 48s-28.5 46 -28.5 76c0 42.667 15.333 75.834 46 99.501s68.667 35.5 114 35.5
c63.333 0 112.666 -18 147.999 -54l-25 -34c-29.333 31.333 -71.333 47 -126 47c-31.333 0 -58 -7.5 -80 -22.5s-33 -37.833 -33 -68.5c0 -24 9.5 -44 28.5 -60s42 -29.167 69 -39.5l80.5 -32c26.667 -11 49.5 -27 68.5 -48s28.5 -46.833 28.5 -77.5
c0 -40 -15 -72.5 -45 -97.5s-68.333 -37.5 -115 -37.5c-76.667 0 -137 24 -181 72zM195.001 588.999l-80 111h49l56 -80h2l56 80h49l-80 -111h-52z" />
    <glyph glyph-name="Tcommaaccent" unicode="&#x162;" horiz-adv-x="601" 
d="M279 0v660h-261v40h565v-40h-261v-660h-5l-11 -60c20.667 -3.33301 37.334 -11 50.001 -23s19 -27 19 -45c0 -26 -8.66699 -45.167 -26 -57.5s-39 -18.5 -65 -18.5c-16.667 0 -31.334 1.33301 -44.001 4v38c11.333 -3.33301 25 -5 41 -5c36 0 54 12.333 54 37
c0 25.333 -20.333 38 -61 38l-12 -1l20 93h-3z" />
    <glyph glyph-name="tcommaaccent" unicode="&#x163;" horiz-adv-x="304" 
d="M152 -93l23.999 109.999c-49.333 28.667 -74 83.334 -74 164.001v278h-66v38h66v142h42v-142h131v-38h-131v-275c0 -30.667 4.16699 -56.667 12.5 -78s19.166 -36.833 32.499 -46.5s25.833 -16.167 37.5 -19.5s23.834 -5 36.501 -5c10 0 17.667 0.666992 23 2v-39
c-5.33301 -1.33301 -13.666 -2 -24.999 -2c-17.333 0 -35.333 2.33301 -54 7l-11 -63c20.667 -3.33301 37.334 -11 50.001 -23s19 -27 19 -45c0 -26 -8.66699 -45.167 -26 -57.5s-39 -18.5 -65 -18.5c-16.667 0 -31.334 1.33301 -44.001 4v38c11.333 -3.33301 25 -5 41 -5
c36 0 54 12.333 54 37c0 25.333 -20.333 38 -61 38z" />
    <glyph glyph-name="Tcaron" unicode="&#x164;" horiz-adv-x="601" 
d="M279 0v660h-261v40h565v-40h-261v-660h-43zM274 750l-80 111h49l56 -80h2l56 80h49l-80 -111h-52z" />
    <glyph glyph-name="tcaron" unicode="&#x165;" horiz-adv-x="304" 
d="M102 181l-0.00195312 277.998h-66v38h66v142h42v-142h131v-38h-131v-275c0 -30.667 4.16699 -56.667 12.5 -78s19.166 -36.833 32.499 -46.5s25.833 -16.167 37.5 -19.5s23.834 -5 36.501 -5c10 0 17.667 0.666992 23 2v-39c-5.33301 -1.33301 -13.666 -2 -24.999 -2
c-12.667 0 -25 1 -37 3s-25.667 6.83301 -41 14.5s-28.666 17.834 -39.999 30.501s-21 30.834 -29 54.501s-12 51.167 -12 82.5zM216.998 699.998h48c4 -17.333 6 -33 6 -47c0 -24.667 -7.33301 -53.667 -22 -87h-39c12 31.333 18 57.333 18 78c0 18 -3.66699 36.667 -11 56
z" />
    <glyph glyph-name="Tbar" unicode="&#x166;" horiz-adv-x="611" 
d="M284 0v337h-166v40h166v283h-261v40h565v-40h-261v-283h170v-40h-170v-337h-43z" />
    <glyph glyph-name="tbar" unicode="&#x167;" horiz-adv-x="309" 
d="M38 295l-0.000976562 39.998h66v124h-66v38h66v142h42v-142h131v-38h-131v-124h131v-40h-131v-111c0 -30.667 4.16699 -56.667 12.5 -78s19.166 -36.833 32.499 -46.5s25.833 -16.167 37.5 -19.5s23.834 -5 36.501 -5l23 2v-39c-6.66699 -1.33301 -15 -2 -25 -2
c-12.667 0 -25 1 -37 3s-25.667 6.83301 -41 14.5s-28.666 17.834 -39.999 30.501s-21 30.834 -29 54.501s-12 51.167 -12 82.5v114h-66z" />
    <glyph glyph-name="Utilde" unicode="&#x168;" horiz-adv-x="721" 
d="M99 240l-0.00195312 460h43v-458c0 -65.333 19.667 -117.166 59 -155.499s92.333 -57.5 159 -57.5s119.834 19.167 159.501 57.5s59.5 90.833 59.5 157.5v456h43v-460c0 -76.667 -24.167 -137.834 -72.5 -183.501s-111.166 -68.5 -188.499 -68.5
c-78 0 -141.167 23 -189.5 69s-72.5 107 -72.5 183zM215.998 753c0 72 27.667 108 83 108c15.333 0 29.166 -3.83301 41.499 -11.5s22 -16.167 29 -25.5s15.5 -17.833 25.5 -25.5s20 -11.5 30 -11.5c26.667 0 40 23.667 40 71h40c0 -72 -27.667 -108 -83 -108
c-15.333 0 -29.166 3.83301 -41.499 11.5s-22 16.167 -29 25.5s-15.5 17.833 -25.5 25.5s-20 11.5 -30 11.5c-26.667 0 -40 -23.667 -40 -71h-40z" />
    <glyph glyph-name="utilde" unicode="&#x169;" horiz-adv-x="580" 
d="M81 183l-0.00292969 317h42v-302c0 -20 0.666992 -37.167 2 -51.5s4.33301 -29.333 9 -45s11.334 -28.5 20.001 -38.5s20.834 -18.167 36.501 -24.5s34.167 -9.5 55.5 -9.5c60 0 109.167 22.5 147.5 67.5s57.5 98.167 57.5 159.5v244h42v-500h-42v88l4 41h-2
c-11.333 -32 -35.333 -63.5 -72 -94.5s-81.667 -46.5 -135 -46.5c-59.333 0 -101.666 16 -126.999 48s-38 81 -38 147zM142.997 592c0 72 27.667 108 83 108c15.333 0 29.166 -3.83301 41.499 -11.5s22 -16.167 29 -25.5s15.5 -17.833 25.5 -25.5s20 -11.5 30 -11.5
c26.667 0 40 23.667 40 71h40c0 -72 -27.667 -108 -83 -108c-15.333 0 -29.166 3.83301 -41.499 11.5s-22 16.167 -29 25.5s-15.5 17.833 -25.5 25.5s-20 11.5 -30 11.5c-26.667 0 -40 -23.667 -40 -71h-40z" />
    <glyph glyph-name="Umacron" unicode="&#x16a;" horiz-adv-x="721" 
d="M99 240l-0.00195312 460h43v-458c0 -65.333 19.667 -117.166 59 -155.499s92.333 -57.5 159 -57.5s119.834 19.167 159.501 57.5s59.5 90.833 59.5 157.5v456h43v-460c0 -76.667 -24.167 -137.834 -72.5 -183.501s-111.166 -68.5 -188.499 -68.5
c-78 0 -141.167 23 -189.5 69s-72.5 107 -72.5 183zM240.998 786v40h239v-40h-239z" />
    <glyph glyph-name="umacron" unicode="&#x16b;" horiz-adv-x="580" 
d="M81 183l-0.00292969 317h42v-302c0 -20 0.666992 -37.167 2 -51.5s4.33301 -29.333 9 -45s11.334 -28.5 20.001 -38.5s20.834 -18.167 36.501 -24.5s34.167 -9.5 55.5 -9.5c60 0 109.167 22.5 147.5 67.5s57.5 98.167 57.5 159.5v244h42v-500h-42v88l4 41h-2
c-11.333 -32 -35.333 -63.5 -72 -94.5s-81.667 -46.5 -135 -46.5c-59.333 0 -101.666 16 -126.999 48s-38 81 -38 147zM167.997 625v40h239v-40h-239z" />
    <glyph glyph-name="Ubreve" unicode="&#x16c;" horiz-adv-x="721" 
d="M99 240l-0.00195312 460h43v-458c0 -65.333 19.667 -117.166 59 -155.499s92.333 -57.5 159 -57.5s119.834 19.167 159.501 57.5s59.5 90.833 59.5 157.5v456h43v-460c0 -76.667 -24.167 -137.834 -72.5 -183.501s-111.166 -68.5 -188.499 -68.5
c-78 0 -141.167 23 -189.5 69s-72.5 107 -72.5 183zM359.998 747c-27.333 0 -51 8.50098 -71 25.501s-30 41.167 -30 72.5v16h40v-14c0 -20.667 5.66699 -36.167 17 -46.5s26 -15.5 44 -15.5c17.333 0 31.833 5.16699 43.5 15.5s17.5 26.166 17.5 47.499v13h40v-16
c0 -31.333 -10 -55.5 -30 -72.5s-43.667 -25.5 -71 -25.5z" />
    <glyph glyph-name="ubreve" unicode="&#x16d;" horiz-adv-x="580" 
d="M81 183l-0.00292969 317h42v-302c0 -20 0.666992 -37.167 2 -51.5s4.33301 -29.333 9 -45s11.334 -28.5 20.001 -38.5s20.834 -18.167 36.501 -24.5s34.167 -9.5 55.5 -9.5c60 0 109.167 22.5 147.5 67.5s57.5 98.167 57.5 159.5v244h42v-500h-42v88l4 41h-2
c-11.333 -32 -35.333 -63.5 -72 -94.5s-81.667 -46.5 -135 -46.5c-59.333 0 -101.666 16 -126.999 48s-38 81 -38 147zM286.997 586c-27.333 0 -51 8.50098 -71 25.501s-30 41.167 -30 72.5v16h40v-14c0 -20.667 5.66699 -36.167 17 -46.5s26 -15.5 44 -15.5
c17.333 0 31.833 5.16699 43.5 15.5s17.5 26.166 17.5 47.499v13h40v-16c0 -31.333 -10 -55.5 -30 -72.5s-43.667 -25.5 -71 -25.5z" />
    <glyph glyph-name="Uring" unicode="&#x16e;" horiz-adv-x="721" 
d="M99 240l-0.00195312 460h43v-458c0 -65.333 19.667 -117.166 59 -155.499s92.333 -57.5 159 -57.5s119.834 19.167 159.501 57.5s59.5 90.833 59.5 157.5v456h43v-460c0 -76.667 -24.167 -137.834 -72.5 -183.501s-111.166 -68.5 -188.499 -68.5
c-78 0 -141.167 23 -189.5 69s-72.5 107 -72.5 183zM359.998 740c-18.667 0 -34.5 6.33301 -47.5 19s-19.5 28.667 -19.5 48s6.5 35.333 19.5 48s28.833 19 47.5 19s34.5 -6.33301 47.5 -19s19.5 -28.667 19.5 -48s-6.5 -35.333 -19.5 -48s-28.833 -19 -47.5 -19z
M359.998 775c9.33301 0 17 3 23 9s9 13.667 9 23c0 10 -3 18 -9 24s-13.667 9 -23 9s-17 -3 -23 -9s-9 -14 -9 -24c0 -9.33301 3 -17 9 -23s13.667 -9 23 -9z" />
    <glyph glyph-name="uring" unicode="&#x16f;" horiz-adv-x="580" 
d="M81 183l-0.00292969 317h42v-302c0 -20 0.666992 -37.167 2 -51.5s4.33301 -29.333 9 -45s11.334 -28.5 20.001 -38.5s20.834 -18.167 36.501 -24.5s34.167 -9.5 55.5 -9.5c60 0 109.167 22.5 147.5 67.5s57.5 98.167 57.5 159.5v244h42v-500h-42v88l4 41h-2
c-11.333 -32 -35.333 -63.5 -72 -94.5s-81.667 -46.5 -135 -46.5c-59.333 0 -101.666 16 -126.999 48s-38 81 -38 147zM286.997 579c-19.333 0 -35.333 6.5 -48 19.5s-19 28.833 -19 47.5s6.33301 34.5 19 47.5s28.667 19.5 48 19.5s35.333 -6.5 48 -19.5
s19 -28.833 19 -47.5s-6.33301 -34.5 -19 -47.5s-28.667 -19.5 -48 -19.5zM286.997 614c9.33301 0 17 3 23 9s9 13.667 9 23c0 10 -3 18 -9 24s-13.667 9 -23 9s-17 -3 -23 -9s-9 -14 -9 -24c0 -9.33301 3 -17 9 -23s13.667 -9 23 -9z" />
    <glyph glyph-name="Uhungarumlaut" unicode="&#x170;" horiz-adv-x="721" 
d="M99 240l-0.00195312 460h43v-458c0 -65.333 19.667 -117.166 59 -155.499s92.333 -57.5 159 -57.5s119.834 19.167 159.501 57.5s59.5 90.833 59.5 157.5v456h43v-460c0 -76.667 -24.167 -137.834 -72.5 -183.501s-111.166 -68.5 -188.499 -68.5
c-78 0 -141.167 23 -189.5 69s-72.5 107 -72.5 183zM379.998 750l67 111h56l-79 -111h-44zM264.998 750l62 111h50l-65 -111h-47z" />
    <glyph glyph-name="uhungarumlaut" unicode="&#x171;" horiz-adv-x="580" 
d="M81 183l-0.00292969 317h42v-302c0 -20 0.666992 -37.167 2 -51.5s4.33301 -29.333 9 -45s11.334 -28.5 20.001 -38.5s20.834 -18.167 36.501 -24.5s34.167 -9.5 55.5 -9.5c60 0 109.167 22.5 147.5 67.5s57.5 98.167 57.5 159.5v244h42v-500h-42v88l4 41h-2
c-11.333 -32 -35.333 -63.5 -72 -94.5s-81.667 -46.5 -135 -46.5c-59.333 0 -101.666 16 -126.999 48s-38 81 -38 147zM306.997 589l67 111h56l-79 -111h-44zM191.997 589l62 111h50l-65 -111h-47z" />
    <glyph glyph-name="Uogonek" unicode="&#x172;" horiz-adv-x="721" 
d="M99 240l0.000976562 459.997h43v-458c0 -65.333 19.667 -117.166 59 -155.499s92.333 -57.5 159 -57.5s119.834 19.167 159.501 57.5s59.5 90.833 59.5 157.5v456h43v-460c0 -56.667 -11.833 -102 -35.5 -136s-55.5 -63.667 -95.5 -89
c-24.667 -15.333 -43.334 -27.666 -56.001 -36.999s-25 -22 -37 -38s-18 -32.333 -18 -49c0 -14.667 5.66699 -26.667 17 -36s22.666 -15 33.999 -17l17 -3l-9 -39c-2.66699 0 -6.33398 0.333008 -11.001 1s-13 2.83398 -25 6.50098s-22.667 8.5 -32 14.5
s-17.666 15 -24.999 27s-11 26 -11 42c0 34 17.667 68 53 102c-12 -0.666992 -21 -1 -27 -1c-78 0 -141.167 23 -189.5 69s-72.5 107 -72.5 183z" />
    <glyph glyph-name="uogonek" unicode="&#x173;" horiz-adv-x="580" 
d="M81 183l-0.00195312 316.998h42v-302c0 -20 0.666992 -37.167 2 -51.5s4.33301 -29.333 9 -45s11.334 -28.5 20.001 -38.5s20.834 -18.167 36.501 -24.5s34.167 -9.5 55.5 -9.5c60 0 109.167 22.5 147.5 67.5s57.5 98.167 57.5 159.5v244h42v-500
c-53.333 -39.333 -80 -75.666 -80 -108.999c0 -14.667 5.66699 -26.667 17 -36s22.666 -15 33.999 -17l17 -3l-9 -39c-2.66699 0 -6.33398 0.333008 -11.001 1s-13 2.83398 -25 6.50098s-22.667 8.5 -32 14.5s-17.666 15 -24.999 27s-11 26 -11 42c0 42 27.667 82 83 120v81
l4 41h-2c-11.333 -32 -35.333 -63.5 -72 -94.5s-81.667 -46.5 -135 -46.5c-59.333 0 -101.666 16 -126.999 48s-38 81 -38 147z" />
    <glyph glyph-name="Wcircumflex" unicode="&#x174;" horiz-adv-x="914" 
d="M225 0l-184 700h45l148 -570l17 -75h2c6 26.667 12.333 51.667 19 75l160 570h48l160 -570l19 -75h2c5.33301 27.333 11 52.333 17 75l153 570h45l-189 -700h-54l-148 528l-27 111h-4c-9.33301 -44 -18.333 -81 -27 -111l-148 -528h-54zM361 750l80 111h52l80 -111h-49
l-56 80h-2l-56 -80h-49z" />
    <glyph glyph-name="wcircumflex" unicode="&#x175;" horiz-adv-x="823" 
d="M210 0l-176 500h45l136 -392l17 -54h2c6 20 11.667 38 17 54l137 390h47l137 -390l17 -54h2c5.33301 19.333 11 37.333 17 54l136 392h45l-176 -500h-45l-139 388l-17 54h-2c-5.33301 -20 -11 -38 -17 -54l-138 -388h-45zM305 589l80 111h52l80 -111h-49l-56 80h-2
l-56 -80h-49z" />
    <glyph glyph-name="Ycircumflex" unicode="&#x176;" horiz-adv-x="567" 
d="M262 0v304l-238 396h49l166 -276l43 -79h2c14.667 30 29 56.333 43 79l166 276h49l-237 -396v-304h-43zM177 750l80 111h52l80 -111h-49l-56 80h-2l-56 -80h-49z" />
    <glyph glyph-name="ycircumflex" unicode="&#x177;" horiz-adv-x="517" 
d="M41 -146c18.667 -16 39.332 -24.001 61.999 -24.001c40 0 72.667 30 98 90l36 83l-207 497h45l165 -399l18 -47h2c4.66699 15.333 10.334 31 17.001 47l165 399h45l-257 -617c-26 -62 -68.333 -93 -127 -93c-14 0 -27.833 2.33301 -41.5 7s-23.5 9.33398 -29.5 14.001
l-10 7zM153.998 588.999l80 111h52l80 -111h-49l-56 80h-2l-56 -80h-49z" />
    <glyph glyph-name="Ydieresis" unicode="&#x178;" horiz-adv-x="567" 
d="M262 0v304l-238 396h49l166 -276l43 -79h2c14.667 30 29 56.333 43 79l166 276h49l-237 -396v-304h-43zM323 788v73h46v-73h-46zM186 788v73h46v-73h-46z" />
    <glyph glyph-name="Zacute" unicode="&#x179;" horiz-adv-x="565" 
d="M35 0v34l385 562l48 64v2c-10.667 -1.33301 -27.667 -2 -51 -2h-361v40h464v-34l-385 -562l-48 -64v-2c10.667 1.33301 27.667 2 51 2h385v-40h-488zM271 750l67 111h56l-79 -111h-44z" />
    <glyph glyph-name="zacute" unicode="&#x17a;" horiz-adv-x="487" 
d="M38 0v34l303 381l39 46v2c-12 -1.33301 -29 -2 -51 -2h-278v39h386v-34l-304 -381l-40 -46v-2c12.667 1.33301 30 2 52 2h303v-39h-410zM219 589l67 111h56l-79 -111h-44z" />
    <glyph glyph-name="Zdotaccent" unicode="&#x17b;" horiz-adv-x="565" 
d="M35 0v34l385 562l48 64v2c-10.667 -1.33301 -27.667 -2 -51 -2h-361v40h464v-34l-385 -562l-48 -64v-2c10.667 1.33301 27.667 2 51 2h385v-40h-488zM271 788v73h46v-73h-46z" />
    <glyph glyph-name="zdotaccent" unicode="&#x17c;" horiz-adv-x="487" 
d="M38 0v34l303 381l39 46v2c-12 -1.33301 -29 -2 -51 -2h-278v39h386v-34l-304 -381l-40 -46v-2c12.667 1.33301 30 2 52 2h303v-39h-410zM220 627v73h46v-73h-46z" />
    <glyph glyph-name="Zcaron" unicode="&#x17d;" horiz-adv-x="565" 
d="M35 0v34l385 562l48 64v2c-10.667 -1.33301 -27.667 -2 -51 -2h-361v40h464v-34l-385 -562l-48 -64v-2c10.667 1.33301 27.667 2 51 2h385v-40h-488zM268 750l-80 111h49l56 -80h2l56 80h49l-80 -111h-52z" />
    <glyph glyph-name="zcaron" unicode="&#x17e;" horiz-adv-x="487" 
d="M38 0v34l303 381l39 46v2c-12 -1.33301 -29 -2 -51 -2h-278v39h386v-34l-304 -381l-40 -46v-2c12.667 1.33301 30 2 52 2h303v-39h-410zM217 589l-80 111h49l56 -80h2l56 80h49l-80 -111h-52z" />
    <glyph glyph-name="longs" unicode="&#x17f;" horiz-adv-x="251" 
d="M102 0l0.000976562 459h-63v38h63v23c0 38.667 5.66699 71.334 17 98.001s26.166 45.667 44.499 57s35 19.166 50 23.499s30.5 6.5 46.5 6.5l26 -2v-39c-6 1.33301 -13.667 2 -23 2c-12.667 0 -24.667 -1.66699 -36 -5s-23.833 -9.5 -37.5 -18.5s-24.667 -24 -33 -45
s-12.5 -46.5 -12.5 -76.5v-521h-42z" />
    <glyph glyph-name="florin" unicode="&#x192;" horiz-adv-x="560" 
d="M36 -57c18 -3.33301 38.6699 -5.00098 62.0029 -5.00098c9.33301 0 18.666 0.833008 27.999 2.5s20 5.5 32 11.5s22.5 14 31.5 24s17.167 24.167 24.5 42.5s12 39.833 14 64.5l26 295h-96v38h99l10 111c2.66699 31.333 9 58.833 19 82.5s21.333 41.834 34 54.501
s27.167 22.834 43.5 30.501s30.666 12.5 42.999 14.5s24.5 3 36.5 3c12.667 0 25.667 -0.666992 39 -2s23.666 -2.66602 30.999 -3.99902l11 -1v-39c-28 4.66699 -55.333 7 -82 7c-12.667 0 -24.834 -1.66699 -36.501 -5s-24.667 -9.5 -39 -18.5s-26.5 -24 -36.5 -45
s-16.333 -46.5 -19 -76.5l-11 -112h133v-38h-136l-26 -294c-3.33301 -38.667 -11.833 -71.334 -25.5 -98.001s-30.167 -45.834 -49.5 -57.501s-36.666 -19.5 -51.999 -23.5s-31 -6 -47 -6l-61 5v39z" />
    <glyph glyph-name="Scommaaccent" unicode="&#x218;" horiz-adv-x="524" 
d="M52 75l28.999 33c52 -52 113.333 -78 184 -78c46.667 0 84.834 12.667 114.501 38s44.5 58.666 44.5 99.999c0 36 -12.333 66.5 -37 91.5s-54.5 45 -89.5 60l-105 46c-35 15.667 -64.833 37.334 -89.5 65.001s-37 61.5 -37 101.5c0 54 20.167 97.5 60.5 130.5
s90.5 49.5 150.5 49.5c72.667 0 131.667 -21.667 177 -65l-24 -37c-18.667 18.667 -42.167 33.334 -70.5 44.001s-56.5 16 -84.5 16c-45.333 0 -84 -12.333 -116 -37s-48 -57.334 -48 -98.001c0 -34 12.333 -62.833 37 -86.5s54.5 -42.667 89.5 -57s70 -29.5 105 -45.5
s64.833 -38.333 89.5 -67s37 -64 37 -106c0 -54 -18.5 -98.333 -55.5 -133s-86.833 -52 -149.5 -52c-83.333 0 -154 29 -212 87zM237.999 -66h48c4 -17.333 6 -33 6 -47c0 -24.667 -7.33301 -53.667 -22 -87h-39c12 31.333 18 57.333 18 78c0 18 -3.66699 36.667 -11 56z
" />
    <glyph glyph-name="scommaaccent" unicode="&#x219;" horiz-adv-x="430" 
d="M41 60l27.001 31.999c40 -42 91.667 -63 155 -63c32.667 0 60 8.33301 82 25s33 39.667 33 69c0 23.333 -9.5 43 -28.5 59s-42 29 -69 39s-53.833 20.667 -80.5 32s-49.5 27.333 -68.5 48s-28.5 46 -28.5 76c0 42.667 15.333 75.834 46 99.501s68.667 35.5 114 35.5
c63.333 0 112.666 -18 147.999 -54l-25 -34c-29.333 31.333 -71.333 47 -126 47c-31.333 0 -58 -7.5 -80 -22.5s-33 -37.833 -33 -68.5c0 -24 9.5 -44 28.5 -60s42 -29.167 69 -39.5l80.5 -32c26.667 -11 49.5 -27 68.5 -48s28.5 -46.833 28.5 -77.5
c0 -40 -15 -72.5 -45 -97.5s-68.333 -37.5 -115 -37.5c-76.667 0 -137 24 -181 72zM195.001 -66.001h48c4 -17.333 6 -33 6 -47c0 -24.667 -7.33301 -53.667 -22 -87h-39c12 31.333 18 57.333 18 78c0 18 -3.66699 36.667 -11 56z" />
    <glyph glyph-name="uni021A" unicode="&#x21a;" horiz-adv-x="601" 
d="M279 0v660h-261v40h565v-40h-261v-660h-43zM277 -66h48c4 -17.333 6 -33 6 -47c0 -24.667 -7.33301 -53.667 -22 -87h-39c12 31.333 18 57.333 18 78c0 18 -3.66699 36.667 -11 56z" />
    <glyph glyph-name="uni021B" unicode="&#x21b;" horiz-adv-x="304" 
d="M102 181l-0.00195312 277.998h-66v38h66v142h42v-142h131v-38h-131v-275c0 -30.667 4.16699 -56.667 12.5 -78s19.166 -36.833 32.499 -46.5s25.833 -16.167 37.5 -19.5s23.834 -5 36.501 -5c10 0 17.667 0.666992 23 2v-39c-5.33301 -1.33301 -13.666 -2 -24.999 -2
c-12.667 0 -25 1 -37 3s-25.667 6.83301 -41 14.5s-28.666 17.834 -39.999 30.501s-21 30.834 -29 54.501s-12 51.167 -12 82.5zM171.998 -66.002h48c4 -17.333 6 -33 6 -47c0 -24.667 -7.33301 -53.667 -22 -87h-39c12 31.333 18 57.333 18 78c0 18 -3.66699 36.667 -11 56
z" />
    <glyph glyph-name="circumflex" unicode="&#x2c6;" horiz-adv-x="508" 
d="M148 750l80 111h52l80 -111h-49l-56 80h-2l-56 -80h-49z" />
    <glyph glyph-name="caron" unicode="&#x2c7;" horiz-adv-x="508" 
d="M228 750l-80 111h49l56 -80h2l56 80h49l-80 -111h-52z" />
    <glyph glyph-name="breve" unicode="&#x2d8;" horiz-adv-x="510" 
d="M255 747c-27.333 0 -51 8.50098 -71 25.501s-30 41.167 -30 72.5v16h40v-14c0 -20.667 5.66699 -36.167 17 -46.5s26 -15.5 44 -15.5c17.333 0 31.833 5.16699 43.5 15.5s17.5 26.166 17.5 47.499v13h40v-16c0 -31.333 -10 -55.5 -30 -72.5s-43.667 -25.5 -71 -25.5z" />
    <glyph glyph-name="dotaccent" unicode="&#x2d9;" horiz-adv-x="510" 
d="M232 788v73h46v-73h-46z" />
    <glyph glyph-name="ring" unicode="&#x2da;" horiz-adv-x="510" 
d="M255 740c-19.333 0 -35.333 6.33301 -48 19s-19 28.667 -19 48s6.33301 35.333 19 48s28.667 19 48 19s35.333 -6.33301 48 -19s19 -28.667 19 -48s-6.33301 -35.333 -19 -48s-28.667 -19 -48 -19zM255 775c9.33301 0 17 3 23 9s9 13.667 9 23c0 10 -3 18 -9 24
s-13.667 9 -23 9s-17 -3 -23 -9s-9 -14 -9 -24c0 -9.33301 3 -17 9 -23s13.667 -9 23 -9z" />
    <glyph glyph-name="ogonek" unicode="&#x2db;" horiz-adv-x="509" 
d="M187 -113c0 14.667 3.33496 29.3301 10.002 43.9971s14.667 27.167 24 37.5s18.666 19.5 27.999 27.5s17.333 14 24 18l10 6l39 -13l-25 -18c-10 -7.33301 -23.333 -21.166 -40 -41.499s-25 -39.166 -25 -56.499c0 -14.667 5.66699 -26.667 17 -36s22.666 -15 33.999 -17
l17 -3l-9 -39c-2.66699 0 -6.33398 0.333008 -11.001 1s-13 2.83398 -25 6.50098s-22.667 8.5 -32 14.5s-17.666 15 -24.999 27s-11 26 -11 42z" />
    <glyph glyph-name="tilde" unicode="&#x2dc;" horiz-adv-x="509" 
d="M110 753c0 72 27.667 108 83 108c15.333 0 29.166 -3.83301 41.499 -11.5s22 -16.167 29 -25.5s15.5 -17.833 25.5 -25.5s20 -11.5 30 -11.5c26.667 0 40 23.667 40 71h40c0 -72 -27.667 -108 -83 -108c-15.333 0 -29.166 3.83301 -41.499 11.5s-22 16.167 -29 25.5
s-15.5 17.833 -25.5 25.5s-20 11.5 -30 11.5c-26.667 0 -40 -23.667 -40 -71h-40z" />
    <glyph glyph-name="hungarumlaut" unicode="&#x2dd;" horiz-adv-x="509" 
d="M251 750l67 111h56l-79 -111h-44zM136 750l62 111h50l-65 -111h-47z" />
    <glyph glyph-name="uni0400" unicode="&#x400;" horiz-adv-x="556" 
d="M107 0v700h383v-40h-340v-287h279v-40h-279v-293h359v-40h-402zM302 750l-79 111h56l67 -111h-44z" />
    <glyph glyph-name="uni0401" unicode="&#x401;" horiz-adv-x="556" 
d="M107 0v700h383v-40h-340v-287h279v-40h-279v-293h359v-40h-402zM352 788v73h46v-73h-46zM215 788v73h46v-73h-46z" />
    <glyph glyph-name="uni0402" unicode="&#x402;" horiz-adv-x="718" 
d="M223 0v660h-206v40h493v-40h-244v-259l-1 -30h2c64 30.667 126.667 46 188 46c71.333 0 126 -19 164 -57s57 -88.333 57 -151c0 -75.333 -21.167 -131 -63.5 -167s-93.833 -54 -154.5 -54c-12.667 0 -28.334 0.666992 -47.001 2v39c12 -1.33301 26.667 -2 44 -2
c50 0 92.167 14.333 126.5 43s51.5 75 51.5 139c0 50.667 -14.667 91.167 -44 121.5s-74 45.5 -134 45.5c-31.333 0 -62.666 -4.33301 -93.999 -13s-55 -17 -71 -25l-24 -13v-325h-43z" />
    <glyph glyph-name="uni0403" unicode="&#x403;" horiz-adv-x="476" 
d="M107 0v700h353v-40h-310v-660h-43zM252 750l67 111h56l-79 -111h-44z" />
    <glyph glyph-name="uni0404" unicode="&#x404;" horiz-adv-x="717" 
d="M60 355c0 101.333 33.167 186.169 99.5 254.502s148.833 102.5 247.5 102.5c30.667 0 60.334 -3 89.001 -9s52.334 -13.333 71.001 -22s35.167 -17.334 49.5 -26.001s24.833 -16 31.5 -22l9 -9l-26 -32c-2 2 -5.16699 4.83301 -9.5 8.5s-13.833 10 -28.5 19
s-30 17 -46 24s-36.667 13.333 -62 19s-51 8.5 -77 8.5c-83.333 0 -153.833 -28.333 -211.5 -85s-88.167 -128.334 -91.5 -215.001h422v-40h-421c5.33301 -86 36.666 -157.833 93.999 -215.5s127.666 -86.5 210.999 -86.5c28 0 55.333 3.33301 82 10
s48.834 14.5 66.501 23.5s33.5 18.167 47.5 27.5s24.333 17.333 31 24l10 10l27 -30l-11.5 -11.5c-5 -5 -15.833 -13.5 -32.5 -25.5s-34.5 -22.667 -53.5 -32s-43.5 -17.833 -73.5 -25.5s-61 -11.5 -93 -11.5c-100.667 0 -184.334 35.5 -251.001 106.5
s-100 157.833 -100 260.5z" />
    <glyph glyph-name="uni0405" unicode="&#x405;" horiz-adv-x="524" 
d="M52 75l28.999 33c52 -52 113.333 -78 184 -78c46.667 0 84.834 12.667 114.501 38s44.5 58.666 44.5 99.999c0 36 -12.333 66.5 -37 91.5s-54.5 45 -89.5 60l-105 46c-35 15.667 -64.833 37.334 -89.5 65.001s-37 61.5 -37 101.5c0 54 20.167 97.5 60.5 130.5
s90.5 49.5 150.5 49.5c72.667 0 131.667 -21.667 177 -65l-24 -37c-18.667 18.667 -42.167 33.334 -70.5 44.001s-56.5 16 -84.5 16c-45.333 0 -84 -12.333 -116 -37s-48 -57.334 -48 -98.001c0 -34 12.333 -62.833 37 -86.5s54.5 -42.667 89.5 -57s70 -29.5 105 -45.5
s64.833 -38.333 89.5 -67s37 -64 37 -106c0 -54 -18.5 -98.333 -55.5 -133s-86.833 -52 -149.5 -52c-83.333 0 -154 29 -212 87z" />
    <glyph glyph-name="uni0406" unicode="&#x406;" horiz-adv-x="257" 
d="M107 0v700h43v-700h-43z" />
    <glyph glyph-name="uni0407" unicode="&#x407;" horiz-adv-x="257" 
d="M107 0v700h43v-700h-43zM175 788v73h46v-73h-46zM38 788v73h46v-73h-46z" />
    <glyph glyph-name="uni0408" unicode="&#x408;" horiz-adv-x="509" 
d="M35 191v22h43v-23c0 -46 12.167 -84.333 36.5 -115s59.833 -46 106.5 -46c40.667 0 75 12.833 103 38.5s42 66.5 42 122.5v470h-167v40h210v-509c0 -69.333 -18.167 -120.5 -54.5 -153.5s-80.5 -49.5 -132.5 -49.5s-96.167 16.5 -132.5 49.5s-54.5 84.167 -54.5 153.5z
" />
    <glyph glyph-name="uni0409" unicode="&#x409;" horiz-adv-x="923" 
d="M22 -8l-0.00195312 41.998c34.667 4.66699 63.834 20.834 87.501 48.501s41.667 67 54 118s20.833 106.333 25.5 166s7 131.167 7 214.5v119h329v-310h148c63.333 0 114.5 -17.167 153.5 -51.5s58.5 -82.166 58.5 -143.499c0 -59.333 -19.833 -106.666 -59.5 -141.999
s-88.5 -53 -146.5 -53h-197v660h-244v-79c0 -60 -1 -112.5 -3 -157.5s-5.66699 -90.5 -11 -136.5s-13 -85.167 -23 -117.5s-22.833 -61.833 -38.5 -88.5s-35.167 -47.334 -58.5 -62.001s-50.666 -23.667 -81.999 -27zM524.998 39.998h149.999
c48.667 0 88.334 13.5 119.001 40.5s46 65.167 46 114.5c0 48 -15.5 85.833 -46.5 113.5s-70.5 41.5 -118.5 41.5h-150v-310z" />
    <glyph glyph-name="uni040A" unicode="&#x40a;" horiz-adv-x="988" 
d="M107 0v700h43v-311h394v311h43v-310h158c60 0 109.167 -17.333 147.5 -52s57.5 -82.334 57.5 -143.001c0 -59.333 -19.833 -106.666 -59.5 -141.999s-88.5 -53 -146.5 -53h-200v349h-394v-349h-43zM587 40h152.999c48.667 0 88.334 13.5 119.001 40.5s46 65.167 46 114.5
c0 48 -15.5 85.833 -46.5 113.5s-70.5 41.5 -118.5 41.5h-153v-310z" />
    <glyph glyph-name="uni040B" unicode="&#x40b;" horiz-adv-x="712" 
d="M223 0v660.001h-206v40h492v-40h-243v-264l-2 -33h2c61.333 36 128.333 54 201 54c126 0 189 -64.333 189 -193v-224h-43v217c0 53.333 -11.667 93.166 -35 119.499s-60.333 39.5 -111 39.5c-39.333 0 -77.5 -6.5 -114.5 -19.5s-65.833 -26.833 -86.5 -41.5v-315h-43z
" />
    <glyph glyph-name="uni040C" unicode="&#x40c;" horiz-adv-x="571" 
d="M107 0v700h43v-312h130l200 312h52l-215 -330v-2l229 -368h-52l-214 348h-130v-348h-43zM272 750l67 111h56l-79 -111h-44z" />
    <glyph glyph-name="uni040D" unicode="&#x40d;" horiz-adv-x="750" 
d="M107 0v700h43v-549l-5 -88h2c25.333 39.333 45.666 69.666 60.999 90.999l395 546h40v-700h-43v549l5 88h-2c-23.333 -37.333 -42.666 -66.666 -57.999 -87.999l-398 -549h-40zM360 750l-79 111h56l67 -111h-44z" />
    <glyph glyph-name="uni040E" unicode="&#x40e;" horiz-adv-x="576" 
d="M90 28l23 34c32.667 -22.667 60 -34 82 -34c23.333 0 41.5 8.66699 54.5 26s26.833 45.333 41.5 84l-280 562h48l212 -426l40 -90h2c11.333 33.333 22 63.333 32 90l160 426h47l-235 -606c-28 -70.667 -68.667 -106 -122 -106c-32 0 -67 13.333 -105 40zM285 734
c-32 0 -59.667 9.83398 -83 29.501s-35 46.167 -35 79.5v18h42v-15c0 -22.667 7.33301 -40.334 22 -53.001s32.667 -19 54 -19c20.667 0 38.667 6.5 54 19.5s23 30.833 23 53.5v14h41v-18c0 -33.333 -11.667 -59.833 -35 -79.5s-51 -29.5 -83 -29.5z" />
    <glyph glyph-name="uni040F" unicode="&#x40f;" horiz-adv-x="717" 
d="M107 0v700h43v-660h417v660h43v-700h-230v-140h-43v140h-230z" />
    <glyph glyph-name="uni0410" unicode="&#x410;" horiz-adv-x="624" 
d="M27 0l262 700h46l262 -700h-46l-91 242h-297l-90 -242h-46zM178 282h267l-106 284l-26 84h-2c-10 -36 -18.667 -64 -26 -84z" />
    <glyph glyph-name="uni0411" unicode="&#x411;" horiz-adv-x="584" 
d="M107 0l-0.000976562 700h382v-40h-339v-260h180c59.333 0 107.833 -17 145.5 -51s56.5 -84 56.5 -150c0 -60.667 -18.167 -109 -54.5 -145s-83.166 -54 -140.499 -54h-230zM149.999 40h183c47.333 0 84.833 14 112.5 42s41.5 67 41.5 117
c0 49.333 -14.333 88.5 -43 117.5s-66 43.5 -112 43.5h-182v-320z" />
    <glyph glyph-name="uni0412" unicode="&#x412;" horiz-adv-x="608" 
d="M107 0l0.000976562 700h235c52 0 94.5 -16 127.5 -48s49.5 -74.333 49.5 -127c0 -72.667 -30.333 -123.667 -91 -153v-2c35.333 -10 64 -31 86 -63s33 -70 33 -114c0 -58 -18.333 -104.667 -55 -140s-83.334 -53 -140.001 -53h-245zM150.001 388l191 0.000976562
c39.333 0 71.333 12.5 96 37.5s37 58.167 37 99.5s-12.167 74.166 -36.5 98.499s-56.833 36.5 -97.5 36.5h-190v-272zM150.001 40.001l198 0.000976562c47.333 0 84.833 13.667 112.5 41s41.5 64.666 41.5 111.999c0 46.667 -14.5 84.167 -43.5 112.5
s-66.167 42.5 -111.5 42.5h-197v-308z" />
    <glyph glyph-name="uni0413" unicode="&#x413;" horiz-adv-x="476" 
d="M107 0v700h353v-40h-310v-660h-43z" />
    <glyph glyph-name="uni0414" unicode="&#x414;" horiz-adv-x="682" 
d="M123 40h394v620h-277v-88c0 -112 -8 -212.833 -24 -302.5s-47 -166.167 -93 -229.5zM4 40l69.999 -0.000976562c27.333 34.667 49.833 73.834 67.5 117.501s30.334 90.667 38.001 141s12.667 95.333 15 135s3.5 85.5 3.5 137.5v129h362v-660h78v-180h-42v140h-549v-140
h-43v180z" />
    <glyph glyph-name="uni0415" unicode="&#x415;" horiz-adv-x="556" 
d="M107 0v700h383v-40h-340v-287h279v-40h-279v-293h359v-40h-402z" />
    <glyph glyph-name="uni0416" unicode="&#x416;" horiz-adv-x="819" 
d="M26 0l215 368v2l-201 330h50l188 -312h110v312h43v-312h110l188 312h50l-201 -330v-2l215 -368h-50l-202 348h-110v-348h-43v348h-110l-202 -348h-50z" />
    <glyph glyph-name="uni0417" unicode="&#x417;" horiz-adv-x="530" 
d="M36 74l29.0029 34c19.333 -22.667 45 -41.334 77 -56.001s65 -22 99 -22c53.333 0 97.5 15 132.5 45s52.5 69.667 52.5 119c0 46.667 -15.833 83.5 -47.5 110.5s-71.167 40.5 -118.5 40.5h-89v40h71c43.333 0 80.666 13.5 111.999 40.5s47 61.833 47 104.5
c0 40.667 -12.833 74.167 -38.5 100.5s-64.5 39.5 -116.5 39.5c-63.333 0 -118.333 -20 -165 -60l-24 37c53.333 43.333 116.333 65 189 65c64.667 0 114.167 -16.333 148.5 -49s51.5 -76 51.5 -130c0 -40.667 -10.5 -74.167 -31.5 -100.5s-46.833 -46.166 -77.5 -59.499v-2
c40.667 -10 73.167 -30.5 97.5 -61.5s36.5 -69.5 36.5 -115.5c0 -61.333 -21.833 -111 -65.5 -149s-98.834 -57 -165.501 -57c-38.667 0 -76.834 7.66699 -114.501 23s-67.5 36.333 -89.5 63z" />
    <glyph glyph-name="uni0418" unicode="&#x418;" horiz-adv-x="750" 
d="M107 0v700h43v-549l-5 -88h2c25.333 39.333 45.666 69.666 60.999 90.999l395 546h40v-700h-43v549l5 88h-2c-23.333 -37.333 -42.666 -66.666 -57.999 -87.999l-398 -549h-40z" />
    <glyph glyph-name="uni0419" unicode="&#x419;" horiz-adv-x="750" 
d="M376 734c-32 0 -59.667 9.83398 -83 29.501s-35 46.167 -35 79.5v18h42v-15c0 -22.667 7.33301 -40.334 22 -53.001s32.667 -19 54 -19c20.667 0 38.667 6.5 54 19.5s23 30.833 23 53.5v14h41v-18c0 -33.333 -11.667 -59.833 -35 -79.5s-51 -29.5 -83 -29.5z
M107 0.000976562v700h43v-549l-5 -88h2c25.333 39.333 45.666 69.666 60.999 90.999l395 546h40v-700h-43v549l5 88h-2c-23.333 -37.333 -42.666 -66.666 -57.999 -87.999l-398 -549h-40z" />
    <glyph glyph-name="uni041A" unicode="&#x41a;" horiz-adv-x="571" 
d="M107 0v700h43v-312h130l200 312h52l-215 -330v-2l229 -368h-52l-214 348h-130v-348h-43z" />
    <glyph glyph-name="uni041B" unicode="&#x41b;" horiz-adv-x="652" 
d="M9 34c34.667 4.66699 63.832 20.834 87.499 48.501s41.667 67 54 118s20.833 106.333 25.5 166s7 131.167 7 214.5v119h362v-700h-43v660h-277v-79c0 -60 -1 -112.5 -3 -157.5s-5.66699 -90.5 -11 -136.5s-13 -85.167 -23 -117.5s-22.833 -61.833 -38.5 -88.5
s-35.167 -47.334 -58.5 -62.001s-50.666 -23.667 -81.999 -27v42z" />
    <glyph glyph-name="uni041C" unicode="&#x41c;" horiz-adv-x="834" 
d="M80 0l56 700.001h42l204 -440l34 -79h2c12 30 23.333 56.333 34 79l204 440h42l56 -700h-43l-43 534l-3 93h-2c-13.333 -39.333 -25.333 -70.333 -36 -93l-188 -399h-44l-187 399l-37 95h-2c0 -40.667 -1 -72.334 -3 -95.001l-43 -534h-43z" />
    <glyph glyph-name="uni041D" unicode="&#x41d;" horiz-adv-x="744" 
d="M107 0v700h43v-329h444v329h43v-700h-43v331h-444v-331h-43z" />
    <glyph glyph-name="uni041E" unicode="&#x41e;" horiz-adv-x="826" 
d="M59 355c0 100 34.5 184.5 103.5 253.5s152.5 103.5 250.5 103.5s181.5 -34.5 250.5 -103.5s103.5 -153.5 103.5 -253.5c0 -102.667 -34.5 -189.5 -103.5 -260.5s-152.5 -106.5 -250.5 -106.5s-181.5 35.5 -250.5 106.5s-103.5 157.833 -103.5 260.5zM104 355
c0 -91.333 30 -168.5 90 -231.5s133 -94.5 219 -94.5s159 31.5 219 94.5s90 140.167 90 231.5c0 89.333 -30 164.333 -90 225s-133 91 -219 91s-159 -30.333 -219 -91s-90 -135.667 -90 -225z" />
    <glyph glyph-name="uni041F" unicode="&#x41f;" horiz-adv-x="734" 
d="M107 0v700h520v-700h-43v660h-434v-660h-43z" />
    <glyph glyph-name="uni0420" unicode="&#x420;" horiz-adv-x="589" 
d="M107 0v700h230c62 0 113 -18.5 153 -55.5s60 -86.5 60 -148.5c0 -62.667 -20 -112.667 -60 -150s-91 -56 -153 -56h-187v-290h-43zM150 330h185c52 0 93.333 14.667 124 44s46 70 46 122s-15.333 92.333 -46 121s-72 43 -124 43h-185v-330z" />
    <glyph glyph-name="uni0421" unicode="&#x421;" horiz-adv-x="719" 
d="M60 355c0 102 32.667 187 98 255s148.333 102 249 102c104 0 187.333 -29.333 250 -88l-26 -32c-28 24.667 -62 44 -102 58s-80.333 21 -121 21c-88.667 0 -161.334 -29.833 -218.001 -89.5s-85 -135.167 -85 -226.5c0 -92.667 28.5 -170.167 85.5 -232.5
s130.5 -93.5 220.5 -93.5c93.333 0 172.333 31.667 237 95l27 -30c-73.333 -70.667 -161.333 -106 -264 -106c-103.333 0 -187.666 35.333 -252.999 106s-98 157.667 -98 261z" />
    <glyph glyph-name="uni0422" unicode="&#x422;" horiz-adv-x="601" 
d="M279 0v660h-261v40h565v-40h-261v-660h-43z" />
    <glyph glyph-name="uni0423" unicode="&#x423;" horiz-adv-x="576" 
d="M90 28l23 34c32.667 -22.667 60 -34 82 -34c23.333 0 41.5 8.66699 54.5 26s26.833 45.333 41.5 84l-280 562h48l212 -426l40 -90h2c11.333 33.333 22 63.333 32 90l160 426h47l-235 -606c-28 -70.667 -68.667 -106 -122 -106c-32 0 -67 13.333 -105 40z" />
    <glyph glyph-name="uni0424" unicode="&#x424;" horiz-adv-x="809" 
d="M49 371c0 90.667 30.5 162 91.5 214s141.833 78 242.5 78v87h43v-87c100.667 0 181.5 -26.167 242.5 -78.5s91.5 -123.5 91.5 -213.5c0 -90.667 -30.5 -162 -91.5 -214s-141.833 -78 -242.5 -78v-91h-43v91c-100.667 0 -181.5 26 -242.5 78s-91.5 123.333 -91.5 214z
M426 117c90 0 160.667 22.167 212 66.5s77 106.833 77 187.5s-25.667 143.167 -77 187.5s-122 66.5 -212 66.5v-508zM94 371c0 -80.667 25.667 -143.167 77 -187.5s122 -66.5 212 -66.5v508c-90 0 -160.667 -22.167 -212 -66.5s-77 -106.833 -77 -187.5z" />
    <glyph glyph-name="uni0425" unicode="&#x425;" horiz-adv-x="555" 
d="M21 0l226 370l-201 330h52l134 -223l45 -76h2c15.333 28 30 53.333 44 76l135 223h52l-203 -330l227 -370h-51l-162 266l-44 74h-2l-43 -75l-160 -265h-51z" />
    <glyph glyph-name="uni0426" unicode="&#x426;" horiz-adv-x="732" 
d="M107 0v700h43v-660h417v660h43v-660h78v-180h-42v140h-539z" />
    <glyph glyph-name="uni0427" unicode="&#x427;" horiz-adv-x="600" 
d="M266 283c-137.333 0 -206 64.332 -206 192.999v224h43v-217c0 -53.333 12.833 -93.166 38.5 -119.499s67.167 -39.5 124.5 -39.5c34 0 68 6.16699 102 18.5s61.333 25.833 82 40.5v317h43v-700h-43v305l2 33h-2c-62.667 -36.667 -124 -55 -184 -55z" />
    <glyph glyph-name="uni0428" unicode="&#x428;" horiz-adv-x="983" 
d="M107 0v700h43v-660h320v660h43v-660h320v660h43v-700h-769z" />
    <glyph glyph-name="uni0429" unicode="&#x429;" horiz-adv-x="1004" 
d="M107 0v700h43v-660h320v660h43v-660h320v660h43v-660h86v-180h-43v140h-812z" />
    <glyph glyph-name="uni042A" unicode="&#x42a;" horiz-adv-x="652" 
d="M197 0l-0.000976562 660h-186v40h229v-300h170c59.333 0 107.833 -17 145.5 -51s56.5 -84 56.5 -150c0 -60.667 -18.167 -109 -54.5 -145s-83.166 -54 -140.499 -54h-220zM239.999 40h173c47.333 0 84.833 14 112.5 42s41.5 67 41.5 117c0 49.333 -14.333 88.5 -43 117.5
s-66 43.5 -112 43.5h-172v-320z" />
    <glyph glyph-name="uni042B" unicode="&#x42b;" horiz-adv-x="785" 
d="M635 0v700h43v-700h-43zM107 0l-0.000976562 700h43v-300h170c59.333 0 107.833 -17 145.5 -51s56.5 -84 56.5 -150c0 -60.667 -18.167 -109 -54.5 -145s-83.166 -54 -140.499 -54h-220zM149.999 40h173c47.333 0 84.833 14 112.5 42s41.5 67 41.5 117
c0 49.333 -14.333 88.5 -43 117.5s-66 43.5 -112 43.5h-172v-320z" />
    <glyph glyph-name="uni042C" unicode="&#x42c;" horiz-adv-x="562" 
d="M107 0l-0.000976562 700h43v-300h170c59.333 0 107.833 -17 145.5 -51s56.5 -84 56.5 -150c0 -60.667 -18.167 -109 -54.5 -145s-83.166 -54 -140.499 -54h-220zM149.999 40h173c47.333 0 84.833 14 112.5 42s41.5 67 41.5 117c0 49.333 -14.333 88.5 -43 117.5
s-66 43.5 -112 43.5h-172v-320z" />
    <glyph glyph-name="uni042D" unicode="&#x42d;" horiz-adv-x="717" 
d="M42 94l27.0029 29.999c24.667 -27.333 59 -50 103 -68s89 -27 135 -27c82.667 0 152.667 28.833 210 86.5s88.666 129.5 93.999 215.5h-421v40h422c-4 86.667 -34.667 158.334 -92 215.001s-128 85 -212 85c-86 0 -160 -26.333 -222 -79l-26 32
c29.333 28 66.333 49.667 111 65s90 23 136 23c100 0 183.333 -34 250 -102s100 -153 100 -255c0 -102.667 -33.333 -189.5 -100 -260.5s-150 -106.5 -250 -106.5c-48.667 0 -96.834 9.16699 -144.501 27.5s-87.834 44.5 -120.501 78.5z" />
    <glyph glyph-name="uni042E" unicode="&#x42e;" horiz-adv-x="1036" 
d="M107 0v700h43v-329h138c4 96 39.333 176.833 106 242.5s146 98.5 238 98.5c95.333 0 176.5 -34.5 243.5 -103.5s100.5 -153.5 100.5 -253.5c0 -102.667 -33.667 -189.5 -101 -260.5s-148.333 -106.5 -243 -106.5c-91.333 0 -170 32.833 -236 98.5
s-101.667 147.167 -107 244.5h-139v-331h-43zM333 355c0 -91.333 29.167 -168.333 87.5 -231s128.833 -94 211.5 -94s153.167 31.333 211.5 94s87.5 139.667 87.5 231c0 88.667 -29.167 163.334 -87.5 224.001s-128.833 91 -211.5 91s-153.167 -30.333 -211.5 -91
s-87.5 -135.334 -87.5 -224.001z" />
    <glyph glyph-name="uni042F" unicode="&#x42f;" horiz-adv-x="601" 
d="M33 0l175 288l16 25v2c-48.667 12 -85.5 35 -110.5 69s-37.5 76.333 -37.5 127c0 38.667 8.66699 72.667 26 102s41 51.333 71 66c28 14 70 21 126 21h195v-700h-43v310h-179l-188 -310h-51zM271 350h180.002v310h-150c-44.667 0 -77.334 -4.66699 -98.001 -14
c-25.333 -11.333 -45.333 -29 -60 -53s-22 -51.333 -22 -82c0 -48 13.667 -86.833 41 -116.5s63.666 -44.5 108.999 -44.5z" />
    <glyph glyph-name="uni0430" unicode="&#x430;" horiz-adv-x="508" 
d="M41 133c0 23.333 4.33203 44.333 12.999 63s19.334 33.834 32.001 45.501s29.167 21.834 49.5 30.501s38.833 15 55.5 19s36.667 7.16699 60 9.5s41.333 3.66602 54 3.99902s28 0.5 46 0.5h33v17c0 99.333 -45.667 149 -137 149c-53.333 0 -101 -16 -143 -48l-24 34
c19.333 16.667 44.333 30 75 40s62 15 94 15c58 0 102 -16 132 -48s45 -79 45 -141v-323h-42v66l4 45h-2c-13.333 -34.667 -35.5 -63.834 -66.5 -87.501s-67.167 -35.5 -108.5 -35.5c-45.333 0 -85 12.5 -119 37.5s-51 60.833 -51 107.5zM84.999 136
c0 -28.667 11.334 -54 34.001 -76s54 -33 94 -33c51.333 0 92.666 21.833 123.999 65.5s47 92.5 47 146.5v27h-32c-20.667 0 -37.5 -0.166992 -50.5 -0.5s-31.667 -1.66602 -56 -3.99902s-44.333 -6.33301 -60 -12s-32 -13 -49 -22s-29.833 -21.333 -38.5 -37
s-13 -33.834 -13 -54.501z" />
    <glyph glyph-name="uni0431" unicode="&#x431;" horiz-adv-x="567" 
d="M65 279c0 43.333 2.33496 80.6689 7.00195 112.002s13.5 62.166 26.5 92.499s32.167 57.166 57.5 80.499s57.333 44.666 96 63.999l191 95l19 -37l-194 -96c-59.333 -29.333 -100.833 -64.166 -124.5 -104.499s-37.834 -91.833 -42.501 -154.5h2
c39.333 80.667 105.333 121 198 121c61.333 0 111.666 -20.667 150.999 -62s59 -97.666 59 -168.999c0 -68.667 -20.5 -124.667 -61.5 -168s-93.833 -65 -158.5 -65c-76 0 -132.667 26.667 -170 80s-56 123.666 -56 210.999zM115.002 223.003
c0 -60 16.833 -107.503 50.5 -142.503s75.5 -52.5 125.5 -52.5s91.833 17.333 125.5 52s50.5 81.334 50.5 140.001s-16.5 105.334 -49.5 140.001s-73.5 52 -121.5 52c-53.333 0 -96.833 -18.167 -130.5 -54.5s-50.5 -81.166 -50.5 -134.499z" />
    <glyph glyph-name="uni0432" unicode="&#x432;" horiz-adv-x="487" 
d="M87 0v499.998h157c51.333 0 91.5 -10.833 120.5 -32.5s43.5 -53.167 43.5 -94.5c0 -55.333 -26.667 -92 -80 -110v-2c32.667 -6 58.667 -20.167 78 -42.5s29 -49.166 29 -80.499c0 -41.333 -15.667 -74.666 -47 -99.999s-75 -38 -131 -38h-170zM129 277.998h117
c78 0 117 31.667 117 95c0 59.333 -40.333 89 -121 89h-113v-184zM129 38.998h124c92 0 138 33 138 99c0 33.333 -12 58.5 -36 75.5s-58.333 25.5 -103 25.5h-123v-200z" />
    <glyph glyph-name="uni0433" unicode="&#x433;" horiz-adv-x="396" 
d="M87 0v500h284v-38h-242v-462h-42z" />
    <glyph glyph-name="uni0434" unicode="&#x434;" horiz-adv-x="553" 
d="M121 39h288v423h-198v-33c0 -172 -30 -302 -90 -390zM10 39h61c65.333 82.667 98 212.667 98 390v71h282v-461h70v-159h-42v120h-427v-120h-42v159z" />
    <glyph glyph-name="uni0435" unicode="&#x435;" horiz-adv-x="549" 
d="M52 249c0 81.333 23.668 145.503 71.001 192.503s104.666 70.5 171.999 70.5c64.667 0 114.834 -21.833 150.501 -65.5s53.5 -97.834 53.5 -162.501c0 -6 -0.666992 -15 -2 -27h-401c0 -70 20.5 -125.5 61.5 -166.5s91.833 -61.5 152.5 -61.5c61.333 0 113 21 155 63
l23 -35c-22 -20.667 -49.167 -37.334 -81.5 -50.001s-64.5 -19 -96.5 -19c-72.667 0 -133.834 24.167 -183.501 72.5s-74.5 111.166 -74.5 188.499zM99.001 296.003h356c-2.66699 58 -19 102 -49 132s-67.333 45 -112 45c-48.667 0 -91.167 -15.5 -127.5 -46.5
s-58.833 -74.5 -67.5 -130.5z" />
    <glyph glyph-name="uni0436" unicode="&#x436;" horiz-adv-x="692" 
d="M23 0l176 255v2l-159 243h49l146 -224h90v224h42v-224h90l146 224h49l-159 -243v-2l176 -255h-53l-161 237h-88v-237h-42v237h-88l-161 -237h-53z" />
    <glyph glyph-name="uni0437" unicode="&#x437;" horiz-adv-x="431" 
d="M34 60l26.998 32.001c38 -42.667 84 -64 138 -64c36 0 67.667 9.5 95 28.5s41 46.5 41 82.5c0 32.667 -12 57.667 -36 75s-58.333 26 -103 26h-60v39h54c40 0 71 8.16699 93 24.5s33 40.166 33 71.499c0 32 -10.667 56 -32 72s-49.333 24 -84 24
c-48 0 -89 -15.667 -123 -47l-25 34c41.333 36 92 54 152 54c46.667 0 84.5 -11.333 113.5 -34s43.5 -55.667 43.5 -99c0 -57.333 -27 -95.666 -81 -114.999v-2c30.667 -6.66699 54.834 -20.334 72.501 -41.001s26.5 -47.667 26.5 -81c0 -48 -17.667 -85.333 -53 -112
s-77.666 -40 -126.999 -40c-63.333 0 -118.333 24 -165 72z" />
    <glyph glyph-name="uni0438" unicode="&#x438;" horiz-adv-x="584" 
d="M87 0v500h42v-356l-3 -81h2l57 81l273 356h39v-500h-42v357l3 78h-2l-57 -78l-273 -357h-39z" />
    <glyph glyph-name="uni0439" unicode="&#x439;" horiz-adv-x="584" 
d="M292 573c-32 0 -59.667 9.83398 -83 29.501s-35 46.167 -35 79.5v18h42v-15c0 -22.667 7.33301 -40.334 22 -53.001s32.667 -19 54 -19c20.667 0 38.667 6.5 54 19.5s23 30.833 23 53.5v14h41v-18c0 -33.333 -11.667 -59.833 -35 -79.5s-51 -29.5 -83 -29.5z
M87 0.000976562v500h42v-356l-3 -81h2l57 81l273 356h39v-500h-42v357l3 78h-2l-57 -78l-273 -357h-39z" />
    <glyph glyph-name="uni043A" unicode="&#x43a;" horiz-adv-x="471" 
d="M87 0v500h42v-221h87l164 221h53l-181 -238v-2l201 -260h-55l-182 240h-87v-240h-42z" />
    <glyph glyph-name="uni043B" unicode="&#x43b;" horiz-adv-x="513" 
d="M20 -4v39c45.333 7.33301 77.666 37.166 96.999 89.499s29 127.833 29 226.5v149h280v-500h-42v461h-196v-110c0 -119.333 -13.667 -206.666 -41 -261.999s-69.666 -86.333 -126.999 -93z" />
    <glyph glyph-name="uni043C" unicode="&#x43c;" horiz-adv-x="705" 
d="M68 0l40 500h40l169 -331l34 -73h2c11.333 26.667 22.666 51 33.999 73l170 331h40l40 -500h-42l-28 347l-1 86h-2c-6.66699 -18.667 -17.667 -42.667 -33 -72l-157 -306h-43l-157 304l-33 74h-2c0.666992 -41.333 0.333984 -70 -0.999023 -86l-28 -347h-42z" />
    <glyph glyph-name="uni043D" unicode="&#x43d;" horiz-adv-x="585" 
d="M87 0v500h42v-223h327v223h42v-500h-42v238h-327v-238h-42z" />
    <glyph glyph-name="uni043E" unicode="&#x43e;" horiz-adv-x="620" 
d="M51 253c0 72.667 25.167 134 75.5 184s111.5 75 183.5 75s133.167 -25 183.5 -75s75.5 -111.333 75.5 -184c0 -74 -25.167 -136.667 -75.5 -188s-111.5 -77 -183.5 -77s-133.167 25.667 -183.5 77s-75.5 114 -75.5 188zM95 253c0 -63.333 20.833 -116.5 62.5 -159.5
s92.5 -64.5 152.5 -64.5s110.833 21.5 152.5 64.5s62.5 96.167 62.5 159.5c0 61.333 -20.833 113 -62.5 155s-92.5 63 -152.5 63s-110.833 -21 -152.5 -63s-62.5 -93.667 -62.5 -155z" />
    <glyph glyph-name="uni043F" unicode="&#x43f;" horiz-adv-x="575" 
d="M87 0v500h401v-500h-42v461h-317v-461h-42z" />
    <glyph glyph-name="uni0440" unicode="&#x440;" horiz-adv-x="578" 
d="M87 -200l-0.000976562 700h42v-60l-3 -40h2c14.667 34.667 38 62 70 82s68.667 30 110 30c66 0 118.5 -24 157.5 -72s58.5 -111.333 58.5 -190s-20.667 -142 -62 -190s-94.666 -72 -159.999 -72c-38 0 -72.667 10 -104 30s-55 47.667 -71 83h-2
c2.66699 -12 4 -26.667 4 -44v-257h-42zM127.999 249c0 -59.333 15.667 -110.833 47 -154.5s73.666 -65.5 126.999 -65.5c50.667 0 93 19.833 127 59.5s51 93.5 51 161.5c0 66.667 -16.167 120.167 -48.5 160.5s-74.166 60.5 -125.499 60.5c-50.667 0 -93 -18.5 -127 -55.5
s-51 -92.5 -51 -166.5z" />
    <glyph glyph-name="uni0441" unicode="&#x441;" horiz-adv-x="540" 
d="M52 249c0 77.333 25.1719 140.5 75.5049 189.5s111.166 73.5 182.499 73.5c33.333 0 66.166 -6 98.499 -18s59.166 -29.667 80.499 -53l-26 -34c-18 19.333 -40.833 34.833 -68.5 46.5s-55.834 17.5 -84.501 17.5c-60 0 -110.667 -20.5 -152 -61.5s-62 -94.5 -62 -160.5
c0 -65.333 20.667 -118.333 62 -159s92 -61 152 -61c31.333 0 62 6.33301 92 19s55 30.334 75 53.001l22 -35c-21.333 -24 -48.833 -43 -82.5 -57s-69.167 -21 -106.5 -21c-72.667 0 -133.834 24.167 -183.501 72.5s-74.5 111.166 -74.5 188.499z" />
    <glyph glyph-name="uni0442" unicode="&#x442;" horiz-adv-x="472" 
d="M215 0v461h-190v39h422v-39h-190v-461h-42z" />
    <glyph glyph-name="uni0443" unicode="&#x443;" horiz-adv-x="517" 
d="M41 -146c18.667 -16 39.332 -24.001 61.999 -24.001c40 0 72.667 30 98 90l36 83l-207 497h45l165 -399l18 -47h2c4.66699 15.333 10.334 31 17.001 47l165 399h45l-257 -617c-26 -62 -68.333 -93 -127 -93c-14 0 -27.833 2.33301 -41.5 7s-23.5 9.33398 -29.5 14.001
l-10 7z" />
    <glyph glyph-name="uni0444" unicode="&#x444;" horiz-adv-x="684" 
d="M53 253c0 74.667 24.667 135.334 74 182.001s114 72 194 76v189h42v-189c80 -4 144.667 -29.333 194 -76s74 -107.334 74 -182.001c0 -76.667 -24.833 -138.834 -74.5 -186.501s-114.167 -73.5 -193.5 -77.5v-189h-42v189c-79.333 4 -143.833 29.833 -193.5 77.5
s-74.5 109.834 -74.5 186.501zM363 29c67.333 4 121.5 26 162.5 66s61.5 92.667 61.5 158c0 64 -20.5 115.333 -61.5 154s-95.167 59.667 -162.5 63v-441zM97 253c0 -65.333 20.5 -118 61.5 -158s95.167 -62 162.5 -66v441c-67.333 -3.33301 -121.5 -24.333 -162.5 -63
s-61.5 -90 -61.5 -154z" />
    <glyph glyph-name="uni0445" unicode="&#x445;" horiz-adv-x="462" 
d="M22 0l180 264l-161 236h51l121 -182l17 -28h2l17 28l121 182h51l-161 -236l180 -264h-52l-138 207l-18 29h-2c-5.33301 -9.33301 -11.333 -19 -18 -29l-138 -207h-52z" />
    <glyph glyph-name="uni0446" unicode="&#x446;" horiz-adv-x="584" 
d="M87 0v500h42v-461h311v461h42v-461h70v-159h-42v120h-423z" />
    <glyph glyph-name="uni0447" unicode="&#x447;" horiz-adv-x="484" 
d="M218 190c-111.333 0 -167 51.667 -167 155v155h42v-155c0 -34 8.33301 -61.5 25 -82.5s50 -31.5 100 -31.5c50.667 0 96.334 15 137.001 45v224h42v-500h-42v199l2 34h-2c-17.333 -12 -39.333 -22.167 -66 -30.5s-50.334 -12.5 -71.001 -12.5z" />
    <glyph glyph-name="uni0448" unicode="&#x448;" horiz-adv-x="780" 
d="M87 0v500h42v-461h240v461h42v-461h240v461h42v-500h-606z" />
    <glyph glyph-name="uni0449" unicode="&#x449;" horiz-adv-x="795" 
d="M87 0v500h42v-461h240v461h42v-461h240v461h42v-461h70v-159h-42v120h-634z" />
    <glyph glyph-name="uni044A" unicode="&#x44a;" horiz-adv-x="518" 
d="M154 0l0.00195312 462h-141v38h183v-200h115c21.333 0 41.166 -2.33301 59.499 -7s36.166 -12.167 53.499 -22.5s31 -25.833 41 -46.5s15 -45.667 15 -75c0 -45.333 -14.5 -81.5 -43.5 -108.5s-71.5 -40.5 -127.5 -40.5h-155zM196.002 39h113
c84.667 0 127 36.667 127 110c0 74.667 -41.667 112 -125 112h-115v-222z" />
    <glyph glyph-name="uni044B" unicode="&#x44b;" horiz-adv-x="634" 
d="M505 0v500h42v-500h-42zM87 0l0.00195312 500h42v-200h115c21.333 0 41.166 -2.33301 59.499 -7s36.166 -12.167 53.499 -22.5s31 -25.833 41 -46.5s15 -45.667 15 -75c0 -45.333 -14.5 -81.5 -43.5 -108.5s-71.5 -40.5 -127.5 -40.5h-155zM129.002 39h113
c84.667 0 127 36.667 127 110c0 74.667 -41.667 112 -125 112h-115v-222z" />
    <glyph glyph-name="uni044C" unicode="&#x44c;" horiz-adv-x="451" 
d="M87 0l0.00195312 500h42v-200h115c21.333 0 41.166 -2.33301 59.499 -7s36.166 -12.167 53.499 -22.5s31 -25.833 41 -46.5s15 -45.667 15 -75c0 -45.333 -14.5 -81.5 -43.5 -108.5s-71.5 -40.5 -127.5 -40.5h-155zM129.002 39h113c84.667 0 127 36.667 127 110
c0 74.667 -41.667 112 -125 112h-115v-222z" />
    <glyph glyph-name="uni044D" unicode="&#x44d;" horiz-adv-x="539" 
d="M40 66l22 34.999c41.333 -48 97.666 -72 168.999 -72c56 0 104 18.5 144 55.5s62.333 85.5 67 145.5h-275v39h275c-4.66699 60 -27.167 108.667 -67.5 146s-88.166 56 -143.499 56c-59.333 0 -111 -21.333 -155 -64l-26 34c20 22.667 46.333 40.167 79 52.5
s66.334 18.5 101.001 18.5c71.333 0 132 -24.5 182 -73.5s75 -112.167 75 -189.5s-24.833 -140.166 -74.5 -188.499s-110.834 -72.5 -183.501 -72.5c-78 0 -141 26 -189 78z" />
    <glyph glyph-name="uni044E" unicode="&#x44e;" horiz-adv-x="785" 
d="M87 0l-0.00195312 499.999h42v-231h107c4 68.667 30 126.334 78 173.001s105 70 171 70c68.667 0 127.334 -25 176.001 -75s73 -111.333 73 -184c0 -74 -24.333 -136.667 -73 -188s-107.334 -77 -176.001 -77c-65.333 0 -121.666 23.167 -168.999 69.5
s-73.666 103.833 -78.999 172.5h-108v-230h-42zM279.998 252.999c0 -63.333 20 -116.5 60 -159.5s88.333 -64.5 145 -64.5s105 21.5 145 64.5s60 96.167 60 159.5c0 61.333 -20 113 -60 155s-88.333 63 -145 63s-105 -21 -145 -63s-60 -93.667 -60 -155z" />
    <glyph glyph-name="uni044F" unicode="&#x44f;" horiz-adv-x="479" 
d="M35 0l125.001 177l23 30v2c-32.667 4.66699 -61.167 19.5 -85.5 44.5s-36.5 57.833 -36.5 98.5c0 48 16.167 84.667 48.5 110s75.166 38 128.499 38h154v-500h-42v202h-122l-140 -202h-53zM234.001 240h116v222h-110c-89.333 0 -134 -36.667 -134 -110
c0 -34.667 12 -62 36 -82s54.667 -30 92 -30z" />
    <glyph glyph-name="uni0450" unicode="&#x450;" horiz-adv-x="549" 
d="M52 249c0 81.333 23.668 145.503 71.001 192.503s104.666 70.5 171.999 70.5c64.667 0 114.834 -21.833 150.501 -65.5s53.5 -97.834 53.5 -162.501c0 -6 -0.666992 -15 -2 -27h-401c0 -70 20.5 -125.5 61.5 -166.5s91.833 -61.5 152.5 -61.5c61.333 0 113 21 155 63
l23 -35c-22 -20.667 -49.167 -37.334 -81.5 -50.001s-64.5 -19 -96.5 -19c-72.667 0 -133.834 24.167 -183.501 72.5s-74.5 111.166 -74.5 188.499zM99.001 296.003h356c-2.66699 58 -19 102 -49 132s-67.333 45 -112 45c-48.667 0 -91.167 -15.5 -127.5 -46.5
s-58.833 -74.5 -67.5 -130.5zM286.001 589.003l-79 111h56l67 -111h-44z" />
    <glyph glyph-name="uni0451" unicode="&#x451;" horiz-adv-x="549" 
d="M52 249c0 81.333 23.668 145.503 71.001 192.503s104.666 70.5 171.999 70.5c64.667 0 114.834 -21.833 150.501 -65.5s53.5 -97.834 53.5 -162.501c0 -6 -0.666992 -15 -2 -27h-401c0 -70 20.5 -125.5 61.5 -166.5s91.833 -61.5 152.5 -61.5c61.333 0 113 21 155 63
l23 -35c-22 -20.667 -49.167 -37.334 -81.5 -50.001s-64.5 -19 -96.5 -19c-72.667 0 -133.834 24.167 -183.501 72.5s-74.5 111.166 -74.5 188.499zM99.001 296.003h356c-2.66699 58 -19 102 -49 132s-67.333 45 -112 45c-48.667 0 -91.167 -15.5 -127.5 -46.5
s-58.833 -74.5 -67.5 -130.5zM334.001 627.003v73h46v-73h-46zM197.001 627.003v73h46v-73h-46z" />
    <glyph glyph-name="uni0452" unicode="&#x452;" horiz-adv-x="586" 
d="M87 0l0.000976562 576.004h-66v38h66v86h42v-86h238v-38h-238v-209l-2 -41h2c11.333 31.333 35.333 61.833 72 91.5s82.667 44.5 138 44.5c61.333 0 104.166 -16.5 128.499 -49.5s36.5 -81.5 36.5 -145.5v-293c0 -38.667 -5.66699 -71.334 -17 -98.001
s-26.166 -45.834 -44.499 -57.501s-35.166 -19.5 -50.499 -23.5s-31 -6 -47 -6l-25 2v39c6 -1.33301 13.333 -2 22 -2c12.667 0 24.834 1.66699 36.501 5s24.334 9.5 38.001 18.5s24.667 24 33 45s12.5 46.5 12.5 76.5v279c0 20 -0.666992 37.167 -2 51.5
s-4.33301 29.333 -9 45s-11.334 28.5 -20.001 38.5s-20.834 18.167 -36.501 24.5s-34.167 9.5 -55.5 9.5c-46.667 0 -88.834 -14.833 -126.501 -44.5s-62.834 -67.834 -75.501 -114.501c-5.33301 -18.667 -8 -41.334 -8 -68.001v-194h-42z" />
    <glyph glyph-name="uni0453" unicode="&#x453;" horiz-adv-x="396" 
d="M87 0v500h284v-38h-242v-462h-42zM190 589l67 111h56l-79 -111h-44z" />
    <glyph glyph-name="uni0454" unicode="&#x454;" horiz-adv-x="539" 
d="M52 249c0 77.333 25.166 140.502 75.499 189.502s111.166 73.5 182.499 73.5c35.333 0 67.833 -6 97.5 -18s50.5 -24 62.5 -36l19 -17l-26 -34c-4 4.66699 -10.167 10.5 -18.5 17.5s-25.666 16.5 -51.999 28.5s-53.833 18 -82.5 18c-56 0 -104.167 -18 -144.5 -54
s-63.166 -83.333 -68.499 -142h275v-39h-276c2.66699 -62 24.5 -112 65.5 -150s90.5 -57 148.5 -57c32.667 0 62.834 6 90.501 18s47.5 24 59.5 36l17 18l22 -35c-2 -2 -4.66699 -4.83301 -8 -8.5s-11 -10 -23 -19s-24.667 -16.833 -38 -23.5s-30.833 -12.834 -52.5 -18.501
s-44.167 -8.5 -67.5 -8.5c-72.667 0 -133.834 24.167 -183.501 72.5s-74.5 111.166 -74.5 188.499z" />
    <glyph glyph-name="uni0455" unicode="&#x455;" horiz-adv-x="430" 
d="M41 60l27.001 31.999c40 -42 91.667 -63 155 -63c32.667 0 60 8.33301 82 25s33 39.667 33 69c0 23.333 -9.5 43 -28.5 59s-42 29 -69 39s-53.833 20.667 -80.5 32s-49.5 27.333 -68.5 48s-28.5 46 -28.5 76c0 42.667 15.333 75.834 46 99.501s68.667 35.5 114 35.5
c63.333 0 112.666 -18 147.999 -54l-25 -34c-29.333 31.333 -71.333 47 -126 47c-31.333 0 -58 -7.5 -80 -22.5s-33 -37.833 -33 -68.5c0 -24 9.5 -44 28.5 -60s42 -29.167 69 -39.5l80.5 -32c26.667 -11 49.5 -27 68.5 -48s28.5 -46.833 28.5 -77.5
c0 -40 -15 -72.5 -45 -97.5s-68.333 -37.5 -115 -37.5c-76.667 0 -137 24 -181 72z" />
    <glyph glyph-name="uni0456" unicode="&#x456;" horiz-adv-x="216" 
d="M83 627v73h50v-73h-50zM87 0v500h42v-500h-42z" />
    <glyph glyph-name="uni0457" unicode="&#x457;" horiz-adv-x="216" 
d="M87 0v500h42v-500h-42zM154 627v73h46v-73h-46zM17 627v73h46v-73h-46z" />
    <glyph glyph-name="uni0458" unicode="&#x458;" horiz-adv-x="216" 
d="M83 627v73h50v-73h-50zM87 -21l-0.00390625 521.002h42v-520c0 -38.667 -5.66699 -71.334 -17 -98.001s-26.166 -45.834 -44.499 -57.501s-35.166 -19.5 -50.499 -23.5s-31 -6 -47 -6c-4.66699 0 -13 0.666992 -25 2v39c4 -1.33301 11.333 -2 22 -2
c12.667 0 24.834 1.66699 36.501 5s24.334 9.5 38.001 18.5s24.667 24 33 45s12.5 46.5 12.5 76.5z" />
    <glyph glyph-name="uni0459" unicode="&#x459;" horiz-adv-x="705" 
d="M31 -4l0.00195312 39c45.333 7.33301 77.666 37.166 96.999 89.499s29 127.833 29 226.5v149h226v-200h115c21.333 0 41.166 -2.33301 59.499 -7s36.166 -12.167 53.499 -22.5s31 -25.833 41 -46.5s15 -45.667 15 -75c0 -45.333 -14.5 -81.5 -43.5 -108.5
s-71.5 -40.5 -127.5 -40.5h-155v461h-142v-110c0 -119.333 -13.667 -206.666 -41 -261.999s-69.666 -86.333 -126.999 -93zM383.002 39h113c84.667 0 127 36.667 127 110c0 74.667 -41.667 112 -125 112h-115v-222z" />
    <glyph glyph-name="uni045A" unicode="&#x45a;" horiz-adv-x="779" 
d="M87 0l-0.000976562 500.001h42v-206h287v206h42v-206h109c16.667 0 32.667 -1.33301 48 -4s30.833 -7.33398 46.5 -14.001s29.334 -15.167 41.001 -25.5s21.167 -24 28.5 -41s11 -36.5 11 -58.5c0 -46 -14.5 -82.667 -43.5 -110s-71.5 -41 -127.5 -41h-155v255h-287v-255
h-42zM457.999 39.001h113c84.667 0 127 37.333 127 112c0 69.333 -43.667 104 -131 104h-109v-216z" />
    <glyph glyph-name="uni045B" unicode="&#x45b;" horiz-adv-x="586" 
d="M87 0l0.00488281 576.002h-66v38h66v86h42v-86h238v-38h-238v-209l-2 -41h2c11.333 31.333 35.333 61.833 72 91.5s82.667 44.5 138 44.5c61.333 0 104.166 -16.5 128.499 -49.5s36.5 -81.5 36.5 -145.5v-267h-42v252c0 20 -0.666992 37.167 -2 51.5
s-4.33301 29.333 -9 45s-11.334 28.5 -20.001 38.5s-20.834 18.167 -36.501 24.5s-34.167 9.5 -55.5 9.5c-46.667 0 -88.834 -14.833 -126.501 -44.5s-62.834 -67.834 -75.501 -114.501c-5.33301 -18.667 -8 -41.334 -8 -68.001v-194h-42z" />
    <glyph glyph-name="uni045C" unicode="&#x45c;" horiz-adv-x="471" 
d="M87 0v500h42v-221h87l164 221h53l-181 -238v-2l201 -260h-55l-182 240h-87v-240h-42zM214 589l67 111h56l-79 -111h-44z" />
    <glyph glyph-name="uni045D" unicode="&#x45d;" horiz-adv-x="584" 
d="M297 589l-79 111h56l67 -111h-44zM87 0v500h42v-356l-3 -81h2l57 81l273 356h39v-500h-42v357l3 78h-2l-57 -78l-273 -357h-39z" />
    <glyph glyph-name="uni045E" unicode="&#x45e;" horiz-adv-x="517" 
d="M41 -146c18.667 -16 39.332 -24.001 61.999 -24.001c40 0 72.667 30 98 90l36 83l-207 497h45l165 -399l18 -47h2c4.66699 15.333 10.334 31 17.001 47l165 399h45l-257 -617c-26 -62 -68.333 -93 -127 -93c-14 0 -27.833 2.33301 -41.5 7s-23.5 9.33398 -29.5 14.001
l-10 7zM258.998 572.999c-32 0 -59.667 9.83398 -83 29.501s-35 46.167 -35 79.5v18h42v-15c0 -22.667 7.33301 -40.334 22 -53.001s32.667 -19 54 -19c20.667 0 38.667 6.5 54 19.5s23 30.833 23 53.5v14h41v-18c0 -33.333 -11.667 -59.833 -35 -79.5s-51 -29.5 -83 -29.5z
" />
    <glyph glyph-name="uni045F" unicode="&#x45f;" horiz-adv-x="550" 
d="M87 0v500h42v-461h292v461h42v-500h-167v-120h-42v120h-167z" />
    <glyph glyph-name="uni0462" unicode="&#x462;" horiz-adv-x="668" 
d="M206 0v540.001h-190v40h190v120h43v-120h203v-40h-203v-140h173c60 0 109.5 -17.333 148.5 -52s58.5 -82.334 58.5 -143.001c0 -62.667 -19.833 -112.5 -59.5 -149.5s-88.5 -55.5 -146.5 -55.5h-217zM249 40.001h169.999c48.667 0 88.334 14.5 119.001 43.5
s46 69.5 46 121.5c0 48 -15.5 85.833 -46.5 113.5s-70.5 41.5 -118.5 41.5h-170v-320z" />
    <glyph glyph-name="uni0463" unicode="&#x463;" horiz-adv-x="489" 
d="M123 0l0.00195312 462h-121v38h121v200h42v-200h170v-38h-170v-162h115c21.333 0 41.166 -2.33301 59.499 -7s36.166 -12.167 53.499 -22.5s31 -25.833 41 -46.5s15 -45.667 15 -75c0 -45.333 -14.5 -81.5 -43.5 -108.5s-71.5 -40.5 -127.5 -40.5h-155zM165.002 39h113
c84.667 0 127 36.667 127 110c0 74.667 -41.667 112 -125 112h-115v-222z" />
    <glyph glyph-name="uni0472" unicode="&#x472;" horiz-adv-x="826" 
d="M59 355c0 100.667 34 185.334 102 254.001s152 103 252 103s184 -34.333 252 -103s102 -153.334 102 -254.001c0 -103.333 -34 -190.333 -102 -261s-152 -106 -252 -106s-184 35.333 -252 106s-102 157.667 -102 261zM413 29c84.667 0 156 29.167 214 87.5
s89.333 131.166 94 218.499h-617c4.66699 -87.333 36.167 -160.166 94.5 -218.499s129.833 -87.5 214.5 -87.5zM413 671c-84.667 0 -156 -28 -214 -84s-89.667 -126.667 -95 -212h617c-4.66699 84.667 -36 155.167 -94 211.5s-129.333 84.5 -214 84.5z" />
    <glyph glyph-name="uni0473" unicode="&#x473;" horiz-adv-x="620" 
d="M51 253c0 72.667 25.167 134 75.5 184s111.5 75 183.5 75s133.167 -25 183.5 -75s75.5 -111.333 75.5 -184c0 -74 -25.167 -136.667 -75.5 -188s-111.5 -77 -183.5 -77s-133.167 25.667 -183.5 77s-75.5 114 -75.5 188zM310 29c56 0 104.5 19.501 145.5 58.501
s63.833 87.5 68.5 145.5h-429c4.66699 -58.667 27.5 -107.334 68.5 -146.001s89.833 -58 146.5 -58zM310 471.001c-56.667 0 -105.498 -19 -146.498 -57s-63.833 -85.333 -68.5 -142h429c-4.66699 56.667 -27.334 104 -68.001 142s-89.334 57 -146.001 57z" />
    <glyph glyph-name="uni0474" unicode="&#x474;" horiz-adv-x="680" 
d="M287 0l-262 699.999h47l210 -566l27 -84h2l27 84l163 471c15.333 42.667 31.833 69.167 49.5 79.5s48.834 15.5 93.501 15.5h24v-41h-21h-17.5h-16c-2.33301 0 -6.66602 -0.166992 -12.999 -0.5s-10.333 -1.16602 -12 -2.49902s-4.83398 -3 -9.50098 -5
s-8.16699 -4.66699 -10.5 -8l-8.5 -12c-3.33301 -4.66699 -6.33301 -10.167 -9 -16.5s-5.33398 -13.5 -8.00098 -21.5l-209 -593h-47z" />
    <glyph glyph-name="uni0475" unicode="&#x475;" horiz-adv-x="539" 
d="M228 0l-197.001 499.999h45l154 -392l17 -54h2c6 20 11.667 38 17 54l107 305c11.333 32.667 26 55.334 44 68.001s44.333 19 79 19h21v-41h-21c-24.667 0 -42.667 -3.83301 -54 -11.5s-21.666 -24.167 -30.999 -49.5l-143 -398h-40z" />
    <glyph glyph-name="uni048A" unicode="&#x48a;" horiz-adv-x="767" 
d="M107 0v700h43v-549l-5 -88h2c25.333 39.333 45.666 69.666 60.999 90.999l395 546h40v-660h90v-33l-60 -147h-40l49 140h-82v549l5 88h-2c-23.333 -37.333 -42.666 -66.666 -57.999 -87.999l-398 -549h-40zM377 734c-32 0 -59.667 9.83398 -83 29.501
s-35 46.167 -35 79.5v18h42v-15c0 -22.667 7.33301 -40.334 22 -53.001s32.667 -19 54 -19c20.667 0 38.667 6.5 54 19.5s23 30.833 23 53.5v14h41v-18c0 -33.333 -11.667 -59.833 -35 -79.5s-51 -29.5 -83 -29.5z" />
    <glyph glyph-name="uni048B" unicode="&#x48b;" horiz-adv-x="599" 
d="M87 0v500h42v-356l-3 -81h2l57 81l273 356h39v-462h70v-33l-51 -125h-38l42 120h-65v357l3 78h-2l-57 -78l-273 -357h-39zM295 573c-32 0 -59.667 9.83398 -83 29.501s-35 46.167 -35 79.5v18h42v-15c0 -22.667 7.33301 -40.334 22 -53.001s32.667 -19 54 -19
c20.667 0 38.667 6.5 54 19.5s23 30.833 23 53.5v14h41v-18c0 -33.333 -11.667 -59.833 -35 -79.5s-51 -29.5 -83 -29.5z" />
    <glyph glyph-name="uni048C" unicode="&#x48c;" horiz-adv-x="649" 
d="M178 0l0.000976562 586h-164v40h164v124h43v-124h170v-40h-170v-176h183c59.333 0 108.666 -18.333 147.999 -55s59 -86.667 59 -150c0 -62.667 -19.833 -112.5 -59.5 -149.5s-88.5 -55.5 -146.5 -55.5h-227zM221.001 40l179.999 0.000976562
c48.667 0 88.334 14.5 119.001 43.5s46 69.5 46 121.5c0 51.333 -15.5 91.666 -46.5 120.999s-70.5 44 -118.5 44h-180v-330z" />
    <glyph glyph-name="uni048D" unicode="&#x48d;" horiz-adv-x="499" 
d="M133 0l0.00195312 462h-121v38h121v200h42v-200h170v-38h-170v-162h115c21.333 0 41.166 -2.33301 59.499 -7s36.166 -12.167 53.499 -22.5s31 -25.833 41 -46.5s15 -45.667 15 -75c0 -45.333 -14.5 -81.5 -43.5 -108.5s-71.5 -40.5 -127.5 -40.5h-155zM175.002 39h113
c84.667 0 127 36.667 127 110c0 74.667 -41.667 112 -125 112h-115v-222z" />
    <glyph glyph-name="uni048E" unicode="&#x48e;" horiz-adv-x="609" 
d="M107 0v700.001h230c62 0 113 -18.5 153 -55.5s60 -86.5 60 -148.5c0 -66.667 -23 -119.334 -69 -158.001l63 -90l-32 -23l-63 91c-32.667 -17.333 -70 -26 -112 -26h-187v-290h-43zM354 454.001l32 23l72 -104c31.333 29.333 47 70.333 47 123
c0 52 -15.333 92.333 -46 121s-72 43 -124 43h-185v-330h185c36 0 66 6.66699 90 20z" />
    <glyph glyph-name="uni048F" unicode="&#x48f;" horiz-adv-x="588" 
d="M87 -200l0.000976562 700.001h42v-60l-3 -40h2c1.33301 3.33301 3.16602 7.5 5.49902 12.5s8.33301 13.833 18 26.5s20.667 24 33 34s29.5 19 51.5 27s46 12 72 12c66 0 118.5 -24 157.5 -72s58.5 -111.333 58.5 -190s-21 -142.334 -63 -191.001l57 -69l-30 -26l-56 67
c-36.667 -28.667 -80 -43 -130 -43c-24 0 -46.5 3.83301 -67.5 11.5s-37.833 17 -50.5 28s-23.5 22.167 -32.5 33.5s-15.5 21 -19.5 29l-5 11h-2c2.66699 -12 4 -26.667 4 -44v-257h-42zM333.001 150.001l30 26.001l69 -83c32 39.333 48 91.666 48 156.999
c0 66.667 -16.167 120.167 -48.5 160.5s-74.166 60.5 -125.499 60.5c-50.667 0 -93 -18.5 -127 -55.5s-51 -92.5 -51 -166.5c0 -59.333 15.667 -110.833 47 -154.5s73.666 -65.5 126.999 -65.5c38.667 0 72.667 11.667 102 35z" />
    <glyph glyph-name="uni0490" unicode="&#x490;" horiz-adv-x="477" 
d="M107 0v700h312v80h42v-120h-311v-660h-43z" />
    <glyph glyph-name="uni0491" unicode="&#x491;" horiz-adv-x="386" 
d="M87 0v500h234v70h40v-108h-232v-462h-42z" />
    <glyph glyph-name="uni0492" unicode="&#x492;" horiz-adv-x="488" 
d="M113 0v328h-65v40h65v332h353v-40h-310v-292h163v-40h-163v-328h-43z" />
    <glyph glyph-name="uni0493" unicode="&#x493;" horiz-adv-x="400" 
d="M87 0v231h-64v38h64v231h284v-38h-242v-193h135v-38h-135v-231h-42z" />
    <glyph glyph-name="uni0494" unicode="&#x494;" horiz-adv-x="582" 
d="M107 0v699.998h353v-40h-310v-282c15.333 8.66699 37.833 17.334 67.5 26.001s57.5 13 83.5 13c24.667 0 46.5 -1.66699 65.5 -5s39.167 -10.666 60.5 -21.999s39 -26.666 53 -45.999s25.667 -46.5 35 -81.5s14 -76.167 14 -123.5
c0 -106.667 -21.333 -184.834 -64 -234.501s-97.334 -74.5 -164.001 -74.5v39c24 0 46.167 4.16699 66.5 12.5s39.833 21.833 58.5 40.5s33.334 46.5 44.001 83.5s16 81.5 16 133.5c0 87.333 -15.167 148.833 -45.5 184.5s-76.833 53.5 -139.5 53.5
c-48.667 0 -99 -13 -151 -39v-338h-43z" />
    <glyph glyph-name="uni0495" unicode="&#x495;" horiz-adv-x="473" 
d="M87 0l-0.000976562 500.001h283v-39h-241v-214c42.667 22 84.334 33 125.001 33c34 0 63.333 -6.33301 88 -19s43 -29.667 55 -51s20.667 -43.5 26 -66.5s8 -47.5 8 -73.5c0 -120.667 -45.333 -212.334 -136 -275.001l-23 34c78 52 117 132.333 117 241
c0 50 -10.5 90.667 -31.5 122s-55.5 47 -103.5 47c-45.333 0 -87 -11.667 -125 -35v-204h-42z" />
    <glyph glyph-name="uni0496" unicode="&#x496;" horiz-adv-x="863" 
d="M26 0l215 368v2l-201 330h50l188 -312h110v312h43v-312h110l188 312h50l-201 -330v-2l191 -328h81v-180h-42v140h-65l-202 348h-110v-348h-43v348h-110l-202 -348h-50z" />
    <glyph glyph-name="uni0497" unicode="&#x497;" horiz-adv-x="724" 
d="M23 0l176 255v2l-159 243h49l146 -224h90v224h42v-224h90l146 224h49l-159 -243v-2l149 -216h62v-159h-42v120h-46l-161 237h-88v-237h-42v237h-88l-161 -237h-53z" />
    <glyph glyph-name="uni0498" unicode="&#x498;" horiz-adv-x="532" 
d="M36 74l29.001 34c19.333 -22.667 45 -41.334 77 -56.001s65 -22 99 -22c53.333 0 97.5 15 132.5 45s52.5 69.667 52.5 119c0 46.667 -15.833 83.5 -47.5 110.5s-71.167 40.5 -118.5 40.5h-89v40h71c43.333 0 80.666 13.5 111.999 40.5s47 61.833 47 104.5
c0 40.667 -12.833 74.167 -38.5 100.5s-64.5 39.5 -116.5 39.5c-63.333 0 -118.333 -20 -165 -60l-24 37c53.333 43.333 116.333 65 189 65c64.667 0 114.167 -16.333 148.5 -49s51.5 -76 51.5 -130c0 -40.667 -10.5 -74.167 -31.5 -100.5s-46.833 -46.166 -77.5 -59.499v-2
c40.667 -10 73.167 -30.5 97.5 -61.5s36.5 -69.5 36.5 -115.5c0 -57.333 -19.167 -104.5 -57.5 -141.5s-87.5 -58.167 -147.5 -63.5v-129h-42v129c-36.667 2 -72 10.5 -106 25.5s-61.333 34.833 -82 59.5z" />
    <glyph glyph-name="uni0499" unicode="&#x499;" horiz-adv-x="433" 
d="M35 60l26.999 32.001c38 -42.667 84 -64 138 -64c36 0 67.667 9.5 95 28.5s41 46.5 41 82.5c0 32.667 -12 57.667 -36 75s-58.333 26 -103 26h-60v39h54c40 0 71 8.16699 93 24.5s33 40.166 33 71.499c0 32 -10.667 56 -32 72s-49.333 24 -84 24
c-48 0 -89 -15.667 -123 -47l-25 34c41.333 36 92 54 152 54c46.667 0 84.5 -11.333 113.5 -34s43.5 -55.667 43.5 -99c0 -57.333 -27 -95.666 -81 -114.999v-2c30.667 -6.66699 54.834 -20.334 72.501 -41.001s26.5 -47.667 26.5 -81c0 -42.667 -14.167 -77 -42.5 -103
s-63.833 -41.667 -106.5 -47v-110h-42v108c-60.667 3.33301 -112 27.333 -154 72z" />
    <glyph glyph-name="uni049A" unicode="&#x49a;" horiz-adv-x="616" 
d="M107 0v700h43v-312h130l200 312h52l-215 -330v-2l204 -328h82v-180h-42v140h-67l-214 348h-130v-348h-43z" />
    <glyph glyph-name="uni049B" unicode="&#x49b;" horiz-adv-x="501" 
d="M87 0v500h42v-221h87l164 221h53l-181 -238v-2l171 -221h60v-159h-42v120h-43l-182 240h-87v-240h-42z" />
    <glyph glyph-name="uni049C" unicode="&#x49c;" horiz-adv-x="629" 
d="M107 0v700h43v-312h86v130h41v-130h61l200 312h52l-215 -330v-2l229 -368h-52l-214 348h-61v-130h-41v130h-86v-348h-43z" />
    <glyph glyph-name="uni049D" unicode="&#x49d;" horiz-adv-x="531" 
d="M87 0v500h42v-221h70v109h39v-109h38l164 221h53l-181 -238v-2l201 -260h-55l-182 240h-38v-111h-39v111h-70v-240h-42z" />
    <glyph glyph-name="uni049E" unicode="&#x49e;" horiz-adv-x="576" 
d="M6 533v40h106v127h43v-127h112v-40h-112v-145h130l200 312h52l-215 -330v-2l229 -368h-52l-214 348h-130v-348h-43v533h-106z" />
    <glyph glyph-name="uni049F" unicode="&#x49f;" horiz-adv-x="472" 
d="M87 0v530h-63v38h63v132h42v-132h136v-38h-136v-227h89l162 197h55l-181 -215v-2l198 -283h-53l-181 264h-89v-264h-42z" />
    <glyph glyph-name="uni04A0" unicode="&#x4a0;" horiz-adv-x="714" 
d="M250 0v660h-231v40h274v-312h130l200 312h52l-215 -330v-2l229 -368h-52l-214 348h-130v-348h-43z" />
    <glyph glyph-name="uni04A1" unicode="&#x4a1;" horiz-adv-x="538" 
d="M154 0v462h-141v38h183v-221h87l164 221h53l-181 -238v-2l201 -260h-55l-182 240h-87v-240h-42z" />
    <glyph glyph-name="uni04A2" unicode="&#x4a2;" horiz-adv-x="765" 
d="M107 0v700h43v-329h444v329h43v-660h86v-180h-42v140h-87v331h-444v-331h-43z" />
    <glyph glyph-name="uni04A3" unicode="&#x4a3;" horiz-adv-x="601" 
d="M87 0v500h42v-223h327v223h42v-461h75v-159h-42v120h-75v238h-327v-238h-42z" />
    <glyph glyph-name="uni04A4" unicode="&#x4a4;" horiz-adv-x="913" 
d="M107 0v700h43v-329h394v329h353v-40h-310v-660h-43v331h-394v-331h-43z" />
    <glyph glyph-name="uni04A5" unicode="&#x4a5;" horiz-adv-x="705" 
d="M87 0v500h42v-223h287v223h264v-38h-222v-462h-42v238h-287v-238h-42z" />
    <glyph glyph-name="uni04A6" unicode="&#x4a6;" horiz-adv-x="991" 
d="M107 0v700h457v-312c15.333 8.66699 37.833 17.334 67.5 26.001s57.5 13 83.5 13c24.667 0 46.5 -1.66699 65.5 -5s39.167 -11 60.5 -23s39 -28 53 -48s25.667 -48 35 -84s14 -78.667 14 -128c0 -106.667 -21.333 -184.834 -64 -234.501s-97.334 -74.5 -164.001 -74.5v39
c24 0 46.167 4.16699 66.5 12.5s39.833 21.833 58.5 40.5s33.334 46.5 44.001 83.5s16 81.5 16 133.5c0 90.667 -15.167 154.667 -45.5 192s-76.833 56 -139.5 56c-44.667 0 -95 -13 -151 -39v-348h-43v660h-371v-660h-43z" />
    <glyph glyph-name="uni04A7" unicode="&#x4a7;" horiz-adv-x="781" 
d="M87 0l-0.000976562 499.999h341v-233c42.667 22 84.334 33 125.001 33c29.333 0 55.166 -4.5 77.499 -13.5s40.333 -20.667 54 -35s24.834 -31.333 33.501 -51s14.5 -39.167 17.5 -58.5s4.5 -40 4.5 -62c0 -124.667 -45.333 -219.667 -136 -285l-23 34
c78 54.667 117 138.334 117 251.001c0 52.667 -11.167 95.667 -33.5 129s-59.5 50 -111.5 50c-45.333 0 -87 -11.667 -125 -35v-224h-42v461h-257v-461h-42z" />
    <glyph glyph-name="uni04A8" unicode="&#x4a8;" horiz-adv-x="929" 
d="M61 358c0 51.333 8.33301 98.5029 25 141.503s38.667 78.833 66 107.5s57.166 51.834 89.499 69.501s65.5 29.5 99.5 35.5v-41c-64 -15.333 -119.167 -49.833 -165.5 -103.5s-69.5 -123.5 -69.5 -209.5c0 -94 26.333 -172.167 79 -234.5s124 -93.5 214 -93.5
c52 0 105.333 11 160 33c-60.667 36 -107.834 83.667 -141.501 143s-50.5 125.666 -50.5 198.999c0 50 8 94.833 24 134.5s36.833 70.667 62.5 93s52.834 39.166 81.501 50.499s57 17 85 17c68.667 0 126.667 -24.5 174 -73.5s71 -122.833 71 -221.5
c0 -68.667 -19.333 -132.834 -58 -192.501s-89.667 -108.834 -153 -147.501c50 -16.667 104 -25 162 -25h39v-40h-39c-78.667 0 -148 13 -208 39c-69.333 -34 -138.666 -51 -207.999 -51c-102 0 -184 33.833 -246 101.5s-93 157.167 -93 268.5zM412 405.003
c0 -68.667 16.833 -131.334 50.5 -188.001s81.5 -100.667 143.5 -132c62.667 34.667 114 80.334 154 137.001s60 117.667 60 183c0 88 -19.5 152.333 -58.5 193s-86.167 61 -141.5 61c-18 0 -36.167 -3 -54.5 -9s-36.833 -15.667 -55.5 -29s-35.167 -29.5 -49.5 -48.5
s-26 -43 -35 -72s-13.5 -60.833 -13.5 -95.5z" />
    <glyph glyph-name="uni04A9" unicode="&#x4a9;" horiz-adv-x="756" 
d="M53 255c0 67.333 18.833 123.166 56.5 167.499s81.167 74.166 130.5 89.499l13 -38c-40 -12.667 -76 -37.834 -108 -75.501s-48 -85.5 -48 -143.5c0 -66.667 19.167 -121 57.5 -163s96.166 -63 173.499 -63c44 0 86.667 8 128 24
c-47.333 26.667 -84.833 61.667 -112.5 105s-41.5 92.333 -41.5 147c0 56.667 19.5 105.334 58.5 146.001s86.833 61 143.5 61c57.333 0 104 -18.667 140 -56s54 -87.666 54 -150.999c0 -50 -13.667 -96.5 -41 -139.5s-63.666 -79.5 -108.999 -109.5c34 -10 70 -15 108 -15
h42v-41h-42c-54.667 0 -106 10 -154 30c-57.333 -28 -115.333 -42 -174 -42c-91.333 0 -160 25.333 -206 76s-69 114.334 -69 191.001zM346 305c0 -50.667 14.168 -96.167 42.501 -136.5s66.166 -71.833 113.499 -94.5c46 25.333 82.833 58 110.5 98s41.5 84.333 41.5 133
c0 52.667 -14 93.5 -42 122.5s-64 43.5 -108 43.5c-42.667 0 -79.667 -15.667 -111 -47s-47 -71 -47 -119z" />
    <glyph glyph-name="uni04AA" unicode="&#x4aa;" horiz-adv-x="720" 
d="M61 355c0 102 32.667 187.001 98 255.001s148.333 102 249 102c104 0 187.333 -29.333 250 -88l-26 -32c-28 24.667 -62 44 -102 58s-80.333 21 -121 21c-88.667 0 -161.334 -29.833 -218.001 -89.5s-85 -135.167 -85 -226.5c0 -92.667 28.5 -170.167 85.5 -232.5
s130.5 -93.5 220.5 -93.5c93.333 0 172.333 31.667 237 95l27 -30c-69.333 -66.667 -151.333 -101.667 -246 -105v-129h-42v129c-97.333 6 -176.166 43.667 -236.499 113s-90.5 153.666 -90.5 252.999z" />
    <glyph glyph-name="uni04AB" unicode="&#x4ab;" horiz-adv-x="542" 
d="M53 249c0 77.333 25.1709 140.499 75.5039 189.499s111.166 73.5 182.499 73.5c33.333 0 66.166 -6 98.499 -18s59.166 -29.667 80.499 -53l-26 -34c-18 19.333 -40.833 34.833 -68.5 46.5s-55.834 17.5 -84.501 17.5c-60 0 -110.667 -20.5 -152 -61.5
s-62 -94.5 -62 -160.5c0 -65.333 20.667 -118.333 62 -159s92 -61 152 -61c31.333 0 62 6.33301 92 19s55 30.334 75 53.001l22 -35c-43.333 -48.667 -102.333 -74.667 -177 -78v-108h-42v110c-66 6.66699 -120.5 33.5 -163.5 80.5s-64.5 106.5 -64.5 178.5z" />
    <glyph glyph-name="uni04AC" unicode="&#x4ac;" horiz-adv-x="600" 
d="M277 0v660h-261v40h565v-40h-261v-620h86v-180h-42v140h-87z" />
    <glyph glyph-name="uni04AD" unicode="&#x4ad;" horiz-adv-x="475" 
d="M215 0v461h-190v39h422v-39h-190v-422h75v-159h-42v120h-75z" />
    <glyph glyph-name="uni04AE" unicode="&#x4ae;" horiz-adv-x="555" 
d="M256 0v304l-238 396h49l166 -276l43 -79h2c14.667 30 29 56.333 43 79l166 276h49l-237 -396v-304h-43z" />
    <glyph glyph-name="uni04AF" unicode="&#x4af;" horiz-adv-x="498" 
d="M229 39l-198.999 461h45l154 -359l19 -51h2c5.33301 17.333 11.666 34.333 18.999 51l154 359h44l-198 -461v-239h-40v239z" />
    <glyph glyph-name="uni04B0" unicode="&#x4b0;" horiz-adv-x="555" 
d="M121 265v39h135l-238 396h49l166 -276l43 -79h2c14.667 30 29 56.333 43 79l166 276h49l-237 -396h130v-39h-130v-265h-43v265h-135z" />
    <glyph glyph-name="uni04B1" unicode="&#x4b1;" horiz-adv-x="497" 
d="M115 0l0.000976562 39h114l-197 461h45l152 -359l19 -51h2c5.33301 17.333 11.666 34.333 18.999 51l152 359h44l-196 -461h114v-39h-114v-200h-40v200h-114z" />
    <glyph glyph-name="uni04B2" unicode="&#x4b2;" horiz-adv-x="601" 
d="M21 0l226 369.999l-201 330h52l134 -223l46 -78h2c14.667 29.333 29 55.333 43 78l135 223h52l-203 -330l202 -330h81v-180h-42v140h-65l-162 266l-45 75h-2c-14 -27.333 -28 -52.666 -42 -75.999l-160 -265h-51z" />
    </font>
</defs>
</svg>
